+ Reply to Thread
Results 1 to 3 of 3
  1. #1
    Senior Member
    Join Date
    May 2015
    Posts
    1,490
    Thanks
    0
    Thanked 607 Times in 444 Posts

    Arrow [Mini-HD] The Wall (2017) : อำมหิตหลังกำแพง !!! [เสียง:อังกฤษ 5.1 - บรรยาย:ไทย,อังกฤษ] [ซัยไทย PGS]

    cornfile.com







    The.Wall.2017.BDRip.1080p-LQ.DD5.1-ENTHD.mkv
    Format : Matroska
    Format version : Version 4 / Version 2
    File size : 3.64 GiB
    Duration : 1 h 29 min
    Overall bit rate : 5 797 kb/s
    Movie name : The.Wall.2017.BDRip.1080p-LQ.DD5.1-ENTHD
    Encoded date : UTC 2017-08-11 11:28:04
    Writing application : mkvmerge v9.7.1 ('Pandemonium') 64bit
    Writing library : libebml v1.3.4 + libmatroska v1.4.5
    Cover : Yes
    Attachments : cover.jpg

    Video
    ID : 1
    Format : AVC
    Format/Info : Advanced Video Codec
    Format profile : [email protected]
    Format settings, CABAC : Yes
    Format settings, ReFrames : 4 frames
    Codec ID : V_MPEG4/ISO/AVC
    Duration : 1 h 29 min
    Bit rate : 5 280 kb/s
    Width : 1 920 pixels
    Height : 800 pixels
    Display aspect ratio : 2.40:1
    Frame rate mode : Constant
    Frame rate : 23.976 (24000/1001) FPS
    Color space : YUV
    Chroma subsampling : 4:2:0
    Bit depth : 8 bits
    Scan type : Progressive
    Bits/(Pixel*Frame) : 0.143
    Stream size : 3.32 GiB (91%)
    Title : enthdmovieclub
    Writing library : x264 core 146 r2538 121396c
    Encoding settings : cabac=1 / ref=3 / deblock=1:-1:-1 / analyse=0x3:0x113 / me=hex / subme=7 / psy=1 / psy_rd=1.00:0.15 / mixed_ref=1 / me_range=16 / chroma_me=1 / trellis=2 / 8x8dct=1 / cqm=0 / deadzone=21,11 / fast_pskip=1 / chroma_qp_offset=-3 / threads=6 / lookahead_threads=1 / sliced_threads=0 / nr=0 / decimate=1 / interlaced=0 / bluray_compat=0 / constrained_intra=0 / bframes=3 / b_pyramid=2 / b_adapt=1 / b_bias=0 / direct=1 / weightb=1 / open_gop=0 / weightp=2 / keyint=240 / keyint_min=23 / scenecut=40 / intra_refresh=0 / rc_lookahead=40 / rc=2pass / mbtree=1 / bitrate=5280 / ratetol=1.0 / qcomp=0.80 / qpmin=0 / qpmax=69 / qpstep=4 / cplxblur=20.0 / qblur=0.5 / vbv_maxrate=62500 / vbv_bufsize=78125 / nal_hrd=none / filler=0 / ip_ratio=1.40 / aq=1:1.00
    Language : English
    Default : Yes
    Forced : No

    Audio
    ID : 2
    Format : AC-3
    Format/Info : Audio Coding 3
    Format settings, Endianness : Big
    Codec ID : A_AC3
    Duration : 1 h 29 min
    Bit rate mode : Constant
    Bit rate : 448 kb/s
    Channel(s) : 6 channels
    Channel positions : Front: L C R, Side: L R, LFE
    Sampling rate : 48.0 kHz
    Frame rate : 31.250 FPS (1536 spf)
    Bit depth : 16 bits
    Compression mode : Lossy
    Stream size : 288 MiB (8%)
    Title : Eng AC3 5.1
    Language : English
    Service kind : Complete Main
    Default : Yes
    Forced : No

    Text #1
    ID : 3
    Format : UTF-8
    Codec ID : S_TEXT/UTF8
    Codec ID/Info : UTF-8 Plain Text
    Duration : 1 h 24 min
    Bit rate : 44 b/s
    Count of elements : 842
    Stream size : 27.2 KiB (0%)
    Title : Eng
    Language : English
    Default : Yes
    Forced : No

    Text #2
    ID : 4
    Format : VobSub
    Muxing mode : zlib
    Codec ID : S_VOBSUB
    Codec ID/Info : Picture based subtitle format used on DVDs
    Duration : 1 h 25 min
    Bit rate : 1 759 b/s
    Count of elements : 1016
    Stream size : 1.07 MiB (0%)
    Title : Thai 480p
    Language : Thai
    Default : No
    Forced : Yes

    Text #3
    ID : 5
    Format : VobSub
    Muxing mode : zlib
    Codec ID : S_VOBSUB
    Codec ID/Info : Picture based subtitle format used on DVDs
    Duration : 1 h 25 min
    Bit rate : 3 502 b/s
    Count of elements : 1016
    Stream size : 2.13 MiB (0%)
    Title : Thai 1080p Tahoma
    Language : Thai
    Default : No
    Forced : No

    Text #4
    ID : 6
    Format : VobSub
    Muxing mode : zlib
    Codec ID : S_VOBSUB
    Codec ID/Info : Picture based subtitle format used on DVDs
    Duration : 1 h 25 min
    Bit rate : 3 501 b/s
    Count of elements : 1016
    Stream size : 2.13 MiB (0%)
    Title : Thai 1080p Tahoma LOW
    Language : Thai
    Default : No
    Forced : Yes

    Text #5
    ID : 7
    Format : PGS
    Muxing mode : zlib
    Codec ID : S_HDMV/PGS
    Codec ID/Info : Picture based subtitle format used on BDs/HD-DVDs
    Duration : 1 h 25 min
    Bit rate : 12.0 kb/s
    Count of elements : 2032
    Stream size : 7.31 MiB (0%)
    Title : Thai PGS Tahoma
    Language : Thai
    Default : No
    Forced : Yes

    Text #6
    ID : 8
    Format : PGS
    Muxing mode : zlib
    Codec ID : S_HDMV/PGS
    Codec ID/Info : Picture based subtitle format used on BDs/HD-DVDs
    Duration : 1 h 25 min
    Bit rate : 12.0 kb/s
    Count of elements : 2032
    Stream size : 7.31 MiB (0%)
    Title : Thai PGS Tahoma LOW
    Language : Thai
    Default : No
    Forced : Yes

    Text #7
    ID : 9
    Format : VobSub
    Muxing mode : zlib
    Codec ID : S_VOBSUB
    Codec ID/Info : Picture based subtitle format used on DVDs
    Duration : 1 h 25 min
    Bit rate : 4 150 b/s
    Count of elements : 1016
    Stream size : 2.52 MiB (0%)
    Title : Thai 1080p Angsana
    Language : Thai
    Default : No
    Forced : Yes

    Text #8
    ID : 10
    Format : VobSub
    Muxing mode : zlib
    Codec ID : S_VOBSUB
    Codec ID/Info : Picture based subtitle format used on DVDs
    Duration : 1 h 25 min
    Bit rate : 4 149 b/s
    Count of elements : 1016
    Stream size : 2.52 MiB (0%)
    Title : Thai 1080p Angsana LOW
    Language : Thai
    Default : No
    Forced : Yes

    Text #9
    ID : 11
    Format : PGS
    Muxing mode : zlib
    Codec ID : S_HDMV/PGS
    Codec ID/Info : Picture based subtitle format used on BDs/HD-DVDs
    Duration : 1 h 25 min
    Bit rate : 13.9 kb/s
    Count of elements : 2032
    Stream size : 8.47 MiB (0%)
    Title : Thai PGS Angsana
    Language : Thai
    Default : No
    Forced : Yes

    Text #10
    ID : 12
    Format : PGS
    Muxing mode : zlib
    Codec ID : S_HDMV/PGS
    Codec ID/Info : Picture based subtitle format used on BDs/HD-DVDs
    Duration : 1 h 25 min
    Bit rate : 13.9 kb/s
    Count of elements : 2032
    Stream size : 8.47 MiB (0%)
    Title : Thai PGS Angsana LOW
    Language : Thai
    Default : No
    Forced : Yes

    SUBTHAI แปล BY UNKNOWN

    MODIFIED BY ENTHD






    ไอแซคและแมททิวส์ สองพลทหารซุ่มยิงในสงครามอิรัก ได้รับภารกิจให้สืบหาตัวมือซุ่มยิงในไซต์งานก่อสร้าง ทั้งสองใช้เวลาข้ามคืนซ่อนตัวในพุ่มไม้เพื่อค้นหา มือปืนที่อาจจะหลบซ่อนตัว แต่หลังจากเวลาผ่านไปทั้งคู่เริ่มมั่นใจว่ามือซุ่มที ่พวกเขาตามหาคงไม่อยู ่แล้วจึงได้ออกมาเดินดูภายในไซต์ก่อสร้างแต่ทว่าพวกเ ขากลับถูกมือซุ่มยิงเล่นงาน แมททิวส์ถูกยิงสาหัสนอนนิ่งอยู่ในที่โล่ง ส่วนไอแซคบาดเจ็บและวิ่งเข้าหาที่กำบังเป็นกำแพงเก่า ๆที่มีโอกาสพังได้ทุกเมื่อ
    และตอนนี้ ไอแซคจะต้องใช้ไหวพริบทุกอย่างเพื่อที่จะเอาชีวิตรอด จากมือปืนที่มองไม่เห็นและสนามรบขนาดย่อมแห่งนี้






    DOWNLOAD

    >>สมัคร VIP cornfile <<

    >> วิธีสมัคร VIP cornfile <<



    V.1

    PART1

    PART2

    PART3

    PART4

    PART5


    V.2

    PART1

    PART2

    PART3

    PART4

    PART5

    PASS: enthdmovieclub


    ### #### V.1,V.2 ทุกพาท โหลดแทนกันได้ เปลี่ยนชื่อให้ตรงกันตอนรวมไฟล์###

    ติดตามอัพเดตเรื่องอื่นๆได้ที่


  2. The Following User Says Thank You to ENT-HD For This Useful Post:

    Tatum03 (08-13-2017)

  3. #2
    Senior Member
    Join Date
    Oct 2013
    Location
    Thailand
    Posts
    780
    Thanks
    674
    Thanked 0 Times in 0 Posts
    ขอบคุณมาก

  4. #3
    Senior Member
    Join Date
    Jul 2012
    Posts
    107
    Thanks
    0
    Thanked 21 Times in 12 Posts
    thankkkkkk

+ Reply to Thread

Thread Information

Users Browsing this Thread

There are currently 1 users browsing this thread. (0 members and 1 guests)

     

Posting Permissions

  • You may not post new threads
  • You may not post replies
  • You may not post attachments
  • You may not edit your posts