Requiem



Rating: 6.4/10 Year: 2018 Genres: Fantasy / Thriller Runtime: 60 min Language: English / British Sign Language / Welsh Director: n/A Writers: Kris Mrksa / Blake Ayshford Cast: Lydia Wilson / James Frecheville / Sian Reese-WilliamsPlot:

In 1994, a toddler disappeared from a small Welsh village, never to be seen again. 23 years later, in London, the mother of rising cello star Matilda Gray takes her own life, without apparent reason. Among her possessions, Matilda discovers tantalising evidence, linking her mother to the Welsh girl's disappearance all those years ago. And so grief stricken Matilda travels to Wales, determined to find out who she really is, even if it means unraveling her own identity. In the process, she uncovers long buried secrets in this remote community - including one secret more bizarre, terrifying and dangerous than anything she could have imagined: Dark otherworldly forces are gathering - they have been waiting many years for Matilda to return. If every life is a story, then for most of us, it's our parents who write the opening chapters. They record and remember our early childhoods as we cannot, acting as trusted witnesses to our lives. But what if you discovered that your parent had lied to you? That almost everything they'd said about their own history, and yours, was untrue? Part supernatural thriller, part psychological horror, Requiem takes its inspiration from the psychological horror films of the late 1960s and '70s - Rosemary's Baby, Don't Look Now, and The Innocents, avoiding easy answers, and instead playing on uncertainty and ambiguity. It's also a rumination on the nature of memory, identity, and loss, hinging on a universal truth: that when a parent dies, a part of you dies with them.








Requiem

Fantasy, Thriller | TV Series (2018)


(Plot) Summaries In 1994, a toddler disappeared from a small Welsh village, never to be seen again. 23 years later, in London, the mother of rising cello star Matilda Gray takes her own life, without apparent reason. Among her possessions, Matilda discovers tantalising evidence, linking her mother to the Welsh girl s disappearance all those years ago. And so grief stricken Matilda travels to Wales, determined to find out who she really is, even if it means unraveling her own identity. In the process, she uncovers long buried secrets in this remote community - including one secret more bizarre, terrifying and dangerous than anything she could have imagined: Dark otherworldly forces are gathering - they have been waiting many years for Matilda to return. If every life is a story, then for most of us, it s our parents who write the opening chapters. They record and remember our early childhoods as we cannot, acting as trusted witnesses to our lives. But what if you discovered that your parent had lied to you? That almost everything they d said their own history, and yours, was untrue? Part supernatural thriller, part psychological horror, Requiem takes its inspiration from the psychological horror films of the late 1960s and 70s - Rosemary s Baby, Don t Look Now, and The Innocents, avoiding easy answers, and instead playing on uncertainty and ambiguity. It s also a rumination on the nature of memory, identity, and loss, hinging on a universal truth: that when a parent dies, a part of you dies with them.


Creator: Kris Mrksa
Stars: Lydia Wilson, James Frecheville, Sian Reese-Williams



Actors
Lydia Wilson, James Frecheville, Sian Reese-Williams, Brendan Coyle, Joel Fry,
Tara Fitzgerald, Richard Harrington, Simon Kunz, Joanna Scanlan, Claire Rushbrook,
Charles Dale, Dyfan Dwyfor, Clare Calbraith, Brochan Evans, Darren Evans, Pippa Haywood,
Ifan Huw Dafydd, Emmie Thompson, Sam Hazeldine, Oliver Lansley, Jane Thorne, Anastasia Hille,
Daniel Baker, Rupert Lazarus, Sonia Ritter







Ҿ Screen shot ҡ

*** ˵ : Ҿ Screenshot ҡ ŧҾ 繹ʡ .JPG բҴҧ§ 1,500 pixel Ѻùʹ㹡з ͹ ѴѹͧŴŧ ҹö ٤Ѵ鹩Ѻ駤ҧҧ
https://imagecurl.com/viewer.php?fil...8447313196.png
https://imagecurl.com/viewer.php?fil...2483076761.png
https://imagecurl.com/viewer.php?fil...3491913605.png


Show / Hide media info
* INFO Report !*
General
Format : Matroska
File size : 14.7 GiB
Duration : 57 min 26 s
Overall bit rate : 36.7 Mb/s

Video
Format : AVC
Bit rate : 36.5 Mb/s
Width : 3 840 pixels
Height : 2 160 pixels
Display aspect ratio : 16:9
Frame rate : 25.000 FPS

Audio
Format : AC-3
Bit rate : 384 kb/s
Channel(s) : 6 channels
Sampling rate : 48.0 kHz

Text #1
ID : 3
Format : UTF-8
Codec ID : S_TEXT/UTF8
Codec ID/Info : UTF-8 Plain Text
Duration : 55 min 49 s
Bit rate : 49 b/s
Count of elements : 592
Stream size : 20.1 KiB (0%)
Title : SDH
Language : English
Default : No
Forced : No

Text #2
ID : 4
Format : UTF-8
Codec ID : S_TEXT/UTF8
Codec ID/Info : UTF-8 Plain Text
Duration : 57 min 0 s
Bit rate : 77 b/s
Count of elements : 569
Stream size : 32.3 KiB (0%)
Language : Arabic
Default : No
Forced : No

Text #3
ID : 5
Format : UTF-8
Codec ID : S_TEXT/UTF8
Codec ID/Info : UTF-8 Plain Text
Duration : 55 min 44 s
Bit rate : 92 b/s
Count of elements : 562
Stream size : 37.9 KiB (0%)
Language : Bulgarian
Default : No
Forced : No

Text #4
ID : 6
Format : UTF-8
Codec ID : S_TEXT/UTF8
Codec ID/Info : UTF-8 Plain Text
Duration : 57 min 0 s
Bit rate : 44 b/s
Count of elements : 514
Stream size : 18.4 KiB (0%)
Language : Danish
Default : No
Forced : No

Text #5
ID : 7
Format : UTF-8
Codec ID : S_TEXT/UTF8
Codec ID/Info : UTF-8 Plain Text
Duration : 57 min 0 s
Bit rate : 43 b/s
Count of elements : 570
Stream size : 18.3 KiB (0%)
Language : German
Default : No
Forced : No

Text #6
ID : 8
Format : UTF-8
Codec ID : S_TEXT/UTF8
Codec ID/Info : UTF-8 Plain Text
Duration : 57 min 0 s
Bit rate : 75 b/s
Count of elements : 568
Stream size : 31.3 KiB (0%)
Language : Greek
Default : No
Forced : No

Text #7
ID : 9
Format : UTF-8
Codec ID : S_TEXT/UTF8
Codec ID/Info : UTF-8 Plain Text
Duration : 57 min 0 s
Bit rate : 45 b/s
Count of elements : 568
Stream size : 18.9 KiB (0%)
Language : Spanish
Default : No
Forced : No

Text #8
ID : 10
Format : UTF-8
Codec ID : S_TEXT/UTF8
Codec ID/Info : UTF-8 Plain Text
Duration : 57 min 0 s
Bit rate : 44 b/s
Count of elements : 568
Stream size : 18.7 KiB (0%)
Language : Spanish
Default : No
Forced : No

Text #9
ID : 11
Format : UTF-8
Codec ID : S_TEXT/UTF8
Codec ID/Info : UTF-8 Plain Text
Duration : 57 min 0 s
Bit rate : 36 b/s
Count of elements : 417
Stream size : 15.4 KiB (0%)
Language : Finnish
Default : No
Forced : No

Text #10
ID : 12
Format : UTF-8
Codec ID : S_TEXT/UTF8
Codec ID/Info : UTF-8 Plain Text
Duration : 57 min 0 s
Bit rate : 47 b/s
Count of elements : 562
Stream size : 19.7 KiB (0%)
Language : French
Default : No
Forced : No

Text #11
ID : 13
Format : UTF-8
Codec ID : S_TEXT/UTF8
Codec ID/Info : UTF-8 Plain Text
Duration : 57 min 0 s
Bit rate : 73 b/s
Count of elements : 569
Stream size : 30.9 KiB (0%)
Language : Hebrew
Default : No
Forced : No

Text #12
ID : 14
Format : UTF-8
Codec ID : S_TEXT/UTF8
Codec ID/Info : UTF-8 Plain Text
Duration : 57 min 0 s
Bit rate : 45 b/s
Count of elements : 568
Stream size : 19.2 KiB (0%)
Language : Italian
Default : No
Forced : No

Text #13
ID : 15
Format : UTF-8
Codec ID : S_TEXT/UTF8
Codec ID/Info : UTF-8 Plain Text
Duration : 56 min 55 s
Bit rate : 40 b/s
Count of elements : 652
Stream size : 16.9 KiB (0%)
Language : Japanese
Default : No
Forced : No

Text #14
ID : 16
Format : UTF-8
Codec ID : S_TEXT/UTF8
Codec ID/Info : UTF-8 Plain Text
Duration : 56 min 55 s
Bit rate : 55 b/s
Count of elements : 672
Stream size : 23.3 KiB (0%)
Language : Korean
Default : No
Forced : No

Text #15
ID : 17
Format : UTF-8
Codec ID : S_TEXT/UTF8
Codec ID/Info : UTF-8 Plain Text
Duration : 57 min 0 s
Bit rate : 40 b/s
Count of elements : 566
Stream size : 16.9 KiB (0%)
Language : Norwegian Bokmal
Default : No
Forced : No

Text #16
ID : 18
Format : UTF-8
Codec ID : S_TEXT/UTF8
Codec ID/Info : UTF-8 Plain Text
Duration : 57 min 0 s
Bit rate : 41 b/s
Count of elements : 535
Stream size : 17.2 KiB (0%)
Language : Dutch
Default : No
Forced : No

Text #17
ID : 19
Format : UTF-8
Codec ID : S_TEXT/UTF8
Codec ID/Info : UTF-8 Plain Text
Duration : 57 min 0 s
Bit rate : 44 b/s
Count of elements : 568
Stream size : 18.6 KiB (0%)
Language : Polish
Default : No
Forced : No

Text #18
ID : 20
Format : UTF-8
Codec ID : S_TEXT/UTF8
Codec ID/Info : UTF-8 Plain Text
Duration : 57 min 0 s
Bit rate : 44 b/s
Count of elements : 567
Stream size : 18.6 KiB (0%)
Language : Portuguese
Default : No
Forced : No

Text #19
ID : 21
Format : UTF-8
Codec ID : S_TEXT/UTF8
Codec ID/Info : UTF-8 Plain Text
Duration : 57 min 0 s
Bit rate : 47 b/s
Count of elements : 569
Stream size : 19.7 KiB (0%)
Title : Brazilian
Language : Portuguese
Default : No
Forced : No

Text #20
ID : 22
Format : UTF-8
Codec ID : S_TEXT/UTF8
Codec ID/Info : UTF-8 Plain Text
Duration : 57 min 0 s
Bit rate : 44 b/s
Count of elements : 568
Stream size : 18.5 KiB (0%)
Language : Romanian
Default : No
Forced : No

Text #21
ID : 23
Format : UTF-8
Codec ID : S_TEXT/UTF8
Codec ID/Info : UTF-8 Plain Text
Duration : 57 min 0 s
Bit rate : 41 b/s
Count of elements : 550
Stream size : 17.5 KiB (0%)
Language : Swedish
Default : No
Forced : No

Text #22
ID : 24
Format : UTF-8
Codec ID : S_TEXT/UTF8
Codec ID/Info : UTF-8 Plain Text
Duration : 57 min 0 s
Bit rate : 112 b/s
Count of elements : 569
Stream size : 47.0 KiB (0%)
Language : Thai
Default : No
Forced : No

Text #23
ID : 25
Format : UTF-8
Codec ID : S_TEXT/UTF8
Codec ID/Info : UTF-8 Plain Text
Duration : 57 min 0 s
Bit rate : 44 b/s
Count of elements : 567
Stream size : 18.5 KiB (0%)
Language : Turkish
Default : No
Forced : No

Text #24
ID : 26
Format : UTF-8
Codec ID : S_TEXT/UTF8
Codec ID/Info : UTF-8 Plain Text
Duration : 57 min 0 s
Bit rate : 35 b/s
Count of elements : 569
Stream size : 14.9 KiB (0%)
Title : Simplified
Language : Chinese
Default : No
Forced : No

Text #25
ID : 27
Format : UTF-8
Codec ID : S_TEXT/UTF8
Codec ID/Info : UTF-8 Plain Text
Duration : 57 min 0 s
Bit rate : 37 b/s
Count of elements : 568
Stream size : 15.5 KiB (0%)
Title : Traditional
Language : Chinese







, ´, ٻҾ ҹҪԡҹФѺ

: https://www.imdb.com/title/tt6712390/

: https://en.wikipedia.org/wiki/Requiem_(TV_series)

: https://www.youtube.com/watch?time_c...&v=vlOk23dC98Q





Download: cornfile
Requiem S01E01 Matilda 2160p Netflix WEBRip DD5.1 x264.mkv - 12.7 GB
Requiem S01E02 The Blue Room 2160p Netflix WEBRip DD5.1 x264.mkv - 12.8 GB
Requiem S01E03 The Necklace 2160p Netflix WEBRip DD5.1 x264.mkv - 15.3 GB
Requiem S01E04 Blaid Carreg 2160p Netflix WEBRip DD5.1 x264.mkv - 14.7 GB
Requiem S01E05 Bessie 2160p Netflix WEBRip DD5.1 x264.mkv - 14.6 GB
Requiem S01E06 Carys 2160p Netflix WEBRip DD5.1 x264.mkv - 15.2 GB

Download: mekafile
1
http://www.mekafile.com/dl.php?f=dO4502bGQZj0
2
http://www.mekafile.com/dl.php?f=6l8dc3bGR0bE
3
http://www.mekafile.com/dl.php?f=Cwf5c0bGQZyH
4
http://www.mekafile.com/dl.php?f=51d26fbGQZYT
5
http://www.mekafile.com/dl.php?f=xvbb19bGR1iD
6
http://www.mekafile.com/dl.php?f=b85a78bGR0xM