+ Reply to Thread
Results 1 to 2 of 2
  1. #1
    Administrators Duckload.us's Avatar
    Join Date
    Dec 2010
    Posts
    107,095
    Thanks
    9
    Thanked 111,550 Times in 51,848 Posts

    Question Iron Monkey 1993 HD 1080p ѧ硵ѹ Ҥ1 [ҡ:][SUB:][1080p]




    Format : Matroska
    Format version : Version 4 / Version 2
    File size : 4.16 GiB
    Duration : 1 h 29 min
    Overall bit rate : 6 633 kb/s
    Writing application : Lavf57.41.100
    Writing library : Lavf57.41.100 / Lavf57.41.100

    Video
    ID : 1
    Format : AVC
    Format/Info : Advanced Video Codec
    Format profile : [email protected]
    Format settings, CABAC : Yes
    Format settings, ReFrames : 4 frames
    Codec ID : V_MPEG4/ISO/AVC
    Duration : 1 h 29 min
    Bit rate : 6 181 kb/s
    Width : 1 920 pixels
    Height : 1 040 pixels
    Display aspect ratio : 1.85:1
    Frame rate mode : Constant
    Frame rate : 23.976 FPS
    Color space : YUV
    Chroma subsampling : 4:2:0
    Bit depth : 8 bits
    Scan type : Progressive
    Bits/(Pixel*Frame) : 0.129
    Stream size : 3.87 GiB (93%)
    Writing library : x264 core 148
    Encoding settings : cabac=1 / ref=3 / deblock=1:0:0 / analyse=0x3:0x113 / me=hex / subme=7 / psy=1 / psy_rd=1.00:0.00 / mixed_ref=1 / me_range=16 / chroma_me=1 / trellis=1 / 8x8dct=1 / cqm=0 / deadzone=21,11 / fast_pskip=1 / chroma_qp_offset=-2 / threads=6 / lookahead_threads=1 / sliced_threads=0 / nr=0 / decimate=1 / interlaced=0 / bluray_compat=0 / constrained_intra=0 / bframes=3 / b_pyramid=2 / b_adapt=1 / b_bias=0 / direct=1 / weightb=1 / open_gop=0 / weightp=2 / keyint=250 / keyint_min=23 / scenecut=40 / intra_refresh=0 / rc_lookahead=40 / rc=crf / mbtree=1 / crf=24.0 / qcomp=0.60 / qpmin=0 / qpmax=69 / qpstep=4 / ip_ratio=1.40 / aq=1:1.00
    Language : English
    Default : Yes
    Forced : No
    Statistics Tags Issue : mkvmerge v17.0.0 ('Be Ur Friend') 64-bit 2018-09-13 13:00:39 / Lavf57.41.100
    FromStats_BitRate : 12321676
    FromStats_Duration : 01:29:43.968000000
    FromStats_FrameCount : 129952
    FromStats_StreamSize : 8348062312

    Audio
    ID : 2
    Format : AC-3
    Format/Info : Audio Coding 3
    Mode extension : CM (complete main)
    Format settings, Endianness : Big
    Codec ID : A_AC3
    Duration : 1 h 29 min
    Bit rate mode : Constant
    Bit rate : 320 kb/s
    Channel(s) : 6 channels
    Channel positions : Front: L C R, Side: L R, LFE
    Sampling rate : 48.0 kHz
    Frame rate : 31.250 FPS (1536 spf)
    Bit depth : 32 bits
    Compression mode : Lossy
    Delay relative to video : 448 ms
    Stream size : 205 MiB (5%)
    Writing library : Lavc57.48.101 ac3
    Language : Thai
    Default : Yes
    Forced : No
    Statistics Tags Issue : mkvmerge v17.0.0 ('Be Ur Friend') 64-bit 2018-09-13 13:00:39 / Lavf57.41.100
    FromStats_BitRate : 192000
    FromStats_Duration : 01:29:40.959000000
    FromStats_FrameCount : 154479
    FromStats_StreamSize : 129131832








    Download: cornfile
    http://cornfile.com/rx4pyujwqc6c
    Download: mekafile
    http://www.mekafile.com/dl.php?f=qW4037bLLk5a

  2. The Following User Says Thank You to Duckload.us For This Useful Post:

    chakhrit (10-02-2019)

  3. #2
    Senior Member
    Join Date
    Sep 2013
    Posts
    1,220
    Thanks
    0
    Thanked 1 Time in 1 Post
    §ѹԵþҡ ͺسѺҾѴѺ

Thread Information

Users Browsing this Thread

There are currently 1 users browsing this thread. (0 members and 1 guests)

     

Posting Permissions

  • You may not post new threads
  • You may not post replies
  • You may not post attachments
  • You may not edit your posts