+ Reply to Thread
Results 1 to 2 of 2
  1. #1
    Administrators Duckload.us's Avatar
    Join Date
    Dec 2010
    Posts
    107,694
    Thanks
    7
    Thanked 112,490 Times in 52,084 Posts

    Question [ฝรั่ง]-[M-HD] The Godfather Trilogy 1972-1990 BluRay 720p AC3 x264-CtHts-Blu-ray.AC-3.720p. [Modified]-[พากย์ไทย บรรยายไทย]

    The Godfather



    Rating: 9.2/10 Year: 1972 Genres: Crime / Drama Runtime: 175 min Language: English / Italian / Latin Director: Francis Ford Coppola Writers: Mario Puzo / Francis Ford Coppola / Mario Puzo Cast: Marlon Brando / Al Pacino / James Caanโ€ฆ Plot:

    When the aging head of a famous crime family decides to transfer his position to one of his subalterns, a series of unfortunate events start happening to the family, and a war begins between all the well-known families leading to insolence, deportation, murder and revenge, and ends with the favorable successor being finally chosen. Written by J. S. Golden









    The Godfather 1972 BluRay 720p AC3 x264-CtHts
    The Godfather - เดอะ ก็อดฟาเธอร์ ภาค 1

    ประเภท/Type :
    Classic
    Drama/Romance
    Mafia/Gangster

    สร้างโดย/Studio : Paramount

    รายละเอียดเรื่องย่อ/Synopsis
    ภาพยนตร์ที่ได้รับการยอมรับว่าเป็นหนึ่งในภาพยนตร์ที ่ดีที่สุดโดยสถาบันภาพยนตร์สหรัฐอเมริกา ผลงานชิ้นมาสเตอร์พีซของ ฟรานซิส ฟอร์ด คอปโปล่า นำแสดงโดย มาร์ลอน แบรนโด ในบทบาทที่ส่งให้เขาได้ครองรางวัลออสการ์อย่างสมศักด ิ์ศรี ด้วยบทบาทหัวหน้าของตระกูลคอร์ลิโอเน่ผู้ทรงอิทธิพลเ ดอะ ก็อดฟาเธอร์ นำเสนอเรื่องราวแห่งความรุ่งโรจน์และตกต่ำของครอบครั วชาวซิซิลีอพยพที่เรืองอำนาจและพยายามขยายอำนาจของตร ะกูลในอเมริกา ในช่วงหลังสงครามที่สังคมอเมริกันเต็มไปด้วยคอรัปชั่ น การหลอกลวงและหักหลัง คอปโปล่า เริ่มปฐมบทแห่งไตรภาคด้วยการเล่าเรื่องราวในสองด้านค วบคู่ไปพร้อมๆ กันได้อย่างกลมกลืนด้วยเรื่องราวชีวิตของสมาชิกในครอ บครัวคอร์ลิโอเน่ และภาพความน่าชังของธุรกิจผิดกฎหมายที่พวกเขาเกี่ยวข ้องด้วย ดัดแปลงจากนวนิยายขายดีของ มาริโอ พูโซ พร้อมด้วยทีมนักแสดงชั้นแนวหน้า อัล ปาชิโน่, เจมส์ คานและ โรเบิร์ต ดูวัลล์ ความยอดเยี่ยมแห่งปฐมบทนี้ส่งผลให้ได้รับการเสนอชื่อ เข้าชิง 10 รางวัลออสการ์ กับชัยชนะ 3 รางวัลเกริกไกรซึ่งรวมถึงรางวัลสำคัญ ภาพยนตร์ยอดเยี่ยมในปี 1972

    นักแสดง/Actors :
    - Marlon Brando
    - Al Pacino
    - James Caan
    - Richard Castellano
    - Robert Duvall
    - Sterling Hayden
    - John Marley
    - Richard Conte
    - Diane Keaton

    ผู้กำกับ/Directors :
    - Francis Ford Coppola


    General
    Unique ID : 235791920043363268495425310479335214789 (0xB163DF37D3CBC09498DEA2C0A4E2CEC5)
    Complete name : L:nfsdownload[m-HD] The Godfather Trilogy 1972-1990 BluRay 720p AC3 x264-CtHtsThe

    Godfather 1972 BluRay 720p AC3 x264-CtHts.mkv
    Format : Matroska
    Format version : Version 4 / Version 2
    File size : 3.51 GiB
    Duration : 2h 57mn
    Overall bit rate : 2 839 Kbps
    Movie name : The Godfather 1972 BluRay 720p AC3 x264-CtHts
    Encoded date : UTC 2013-08-23 11:46:02
    Writing application : mkvmerge v6.3.0 ( You can t stop me! ) built on Jun 28 2013 20:09:41
    Writing library : libebml v1.3.0 + libmatroska v1.4.0
    Attachment : Yes

    Video
    ID : 1
    Format : AVC
    Format/Info : Advanced Video Codec
    Format profile : [email protected]
    Format settings, CABAC : Yes
    Format settings, ReFrames : 3 frames
    Codec ID : V_MPEG4/ISO/AVC
    Duration : 2h 57mn
    Bit rate : 2 200 Kbps
    Width : 1 280 pixels
    Height : 720 pixels
    Display aspect ratio : 16:9
    Frame rate mode : Constant
    Frame rate : 23.976 fps
    Color space : YUV
    Chroma subsampling : 4:2:0
    Bit depth : 8 bits
    Scan type : Progressive
    Bits/(Pixel*Frame) : 0.100
    Stream size : 2.69 GiB (77%)
    Title : The Godfather 1972 BluRay 720p AC3 x264-CtHts
    Writing library : x264 core 114 r1924M 08d04a4
    Encoding settings : cabac=1 / ref=2 / deblock=1:0:0 / analyse=0x3:0x133 / me=hex / subme=7 / psy=1 / psy_rd=1.00:0.20 / mixed_ref=1 / me_range=16 / chroma_me=1 / trellis=1 / 8x8dct=1 / cqm=0 / deadzone=21,11 / fast_pskip=1 / chroma_qp_offset=-3 / threads=12 / sliced_threads=0 / nr=0 / decimate=1 / interlaced=0 / constrained_intra=0 / bframes=3 / b_pyramid=1 / b_adapt=2 / b_bias=0 / direct=3 / weightb=1 / open_gop=0 / weightp=2 / keyint=230 / keyint_min=23 / scenecut=40 / intra_refresh=0 / rc_lookahead=40 / rc=2pass / mbtree=1 / bitrate=2200 / ratetol=1.0 / qcomp=0.60 / qpmin=10 / qpmax=51 / qpstep=4 / cplxblur=20.0 / qblur=0.5 / ip_ratio=1.40 /

    aq=1:1.00
    Language : English
    Default : Yes
    Forced : No

    Audio #1
    ID : 2
    Format : AC-3
    Format/Info : Audio Coding 3
    Mode extension : CM (complete main)
    Format settings, Endianness : Big
    Codec ID : A_AC3
    Duration : 2h 57mn
    Bit rate mode : Constant
    Bit rate : 224 Kbps
    Channel(s) : 2 channels
    Channel positions : Front: L R
    Sampling rate : 48.0 KHz
    Bit depth : 16 bits
    Compression mode : Lossy
    Stream size : 284 MiB (8%)
    Title : Thai AC-3 2.0 at 224 Kbps BluRay Master
    Language : Thai
    Default : Yes
    Forced : No

    Audio #2
    ID : 3
    Format : AC-3
    Format/Info : Audio Coding 3
    Mode extension : CM (complete main)
    Format settings, Endianness : Big
    Codec ID : A_AC3
    Duration : 2h 57mn
    Bit rate mode : Constant
    Bit rate : 384 Kbps
    Channel(s) : 6 channels
    Channel positions : Front: L C R, Side: L R, LFE
    Sampling rate : 48.0 KHz
    Bit depth : 16 bits
    Compression mode : Lossy
    Stream size : 487 MiB (14%)
    Title : English AC-3 5.1 at 384 Kbps
    Language : English
    Default : No
    Forced : No

    Text #1
    ID : 4
    Format : VobSub
    Muxing mode : zlib
    Codec ID : S_VOBSUB
    Codec ID/Info : The same subtitle format used on DVDs
    Title : Thai 480p White
    Language : Thai
    Default : No
    Forced : No

    Text #2
    ID : 5
    Format : VobSub
    Muxing mode : zlib
    Codec ID : S_VOBSUB
    Codec ID/Info : The same subtitle format used on DVDs
    Title : Thai 1080p White
    Language : Thai
    Default : Yes
    Forced : No

    Text #3
    ID : 6
    Format : VobSub
    Muxing mode : zlib
    Codec ID : S_VOBSUB
    Codec ID/Info : The same subtitle format used on DVDs
    Title : Thai 1080p BluRay Master
    Language : Thai
    Default : No
    Forced : No

    Text #4
    ID : 7
    Format : PGS
    Muxing mode : zlib
    Codec ID : S_HDMV/PGS
    Codec ID/Info : The same subtitle format used on BDs/HD-DVDs
    Title : Thai PGS BluRay Master
    Language : Thai
    Default : No
    Forced : No

    Text #5
    ID : 8
    Format : VobSub
    Muxing mode : zlib
    Codec ID : S_VOBSUB
    Codec ID/Info : The same subtitle format used on DVDs
    Title : English 1080p BluRay Master
    Language : English
    Default : No
    Forced : No

    Text #6
    ID : 9
    Format : PGS
    Muxing mode : zlib
    Codec ID : S_HDMV/PGS
    Codec ID/Info : The same subtitle format used on BDs/HD-DVDs
    Title : English PGS BluRay Master
    Language : English
    Default : No
    Forced : No

    Text #7
    ID : 10
    Format : ASS
    Codec ID : S_TEXT/ASS
    Codec ID/Info : Advanced Sub Station Alpha
    Compression mode : Lossless
    Title : English ASS
    Language : English
    Default : No
    Forced : No

    Text #8
    ID : 11
    Format : UTF-8
    Codec ID : S_TEXT/UTF8
    Codec ID/Info : UTF-8 Plain Text
    Title : English SRT
    Language : English
    Default : No
    Forced : No



    The Godfather Part II 1974 BluRay 720p AC3 x264-CtHts
    The Godfather : Part II - เดอะ ก็อดฟาเธอร์ ภาค 2

    ประเภท/Type :
    Classic
    Drama/Romance
    Mafia/Gangster

    สร้างโดย/Studio : Paramount

    รายละเอียดเรื่องย่อ/Synopsis
    เป็นสิ่งที่ไม่อาจปฏิเสธได้กับหนึ่งในภาพยนตร์ภาคต่อ ไตรภาคที่ดีที่สุดเท่าที่เคยมีมา ฟรานซิส ฟอร์ด คอปโปลา สานต่องานไตรภาคเรื่องเดอะ ก็อดฟาเธอร์ อีกครั้งกับเจ้าของงานเขียน มาริโอ พูโซ ด้วยเรื่องราวการสืบทอดอำนาจรุ่นต่อรุ่น ของตระกูลคอร์ลีโอเน่โดยบอกเล่าที่มีที่ไปของสองรุ่น ย้อนไปจุดเริ่มต้นและสิ่งที่จะดำเนินต่อในภาคต่อไป ผ่านชีวิตตั้งแต่วัยเด็กที่ เกาะซิซีลี จนเริ่มสร้างอิทธิพลขึ้นมาเป็นมาเฟียใหญ่ ในนิวยอร์กของ ดอน วีโต้ ถ่ายทอดบทบาทโดยโรเบิร์ต เดอ นีโร เจ้าของรางวัลออสการ์ ดารานักแสดงสมทบชายยอดเยี่ยม สลับกับเรื่องราวของผู้สืบทอดอำนาจและตำแหน่งผู้นำตร ะกูลรุ่นต่อไป ไมเคิล คอร์ลีโอเน (รับบทโดย อัล ปาชิโน) ที่ต้องพิสูจน์ตัวเองสู่การเป็น ดอน คนใหม่ ผลงานจากการร่วมแรงร่วมใจจากทีมงานและเหล่านักแสดง ส่งให้ภาพยนตร์นี้ได้รับการเสนอชื่อเข้าชิงรางวัลออส การ์ ถึง 11 สาขา พร้อมชัยชนะ 6 รางวัลรวมถึงสาขาภาพยนตร์ยอดเยี่ยมในปี 1974

    นักแสดง/Actors :
    - Al Pacino
    - Robert Duvall
    - Diane Keaton
    - Robert De Niro
    - Talia Shire

    ผู้กำกับ/Directors :
    - Francis Ford Coppola


    General
    Unique ID : 208173677594874705891856758529608951011 (0x9C9CCABC02C8F3C1968D6260D14CA4E3)
    Complete name : L:nfsdownload[m-HD] The Godfather Trilogy 1972-1990 BluRay 720p AC3 x264-CtHtsThe

    Godfather Part II 1974 BluRay 720p AC3 x264-CtHts.mkv
    Format : Matroska
    Format version : Version 4 / Version 2
    File size : 4.01 GiB
    Duration : 3h 22mn
    Overall bit rate : 2 838 Kbps
    Movie name : The Godfather Part II 1974 BluRay 720p AC3 x264-CtHts
    Encoded date : UTC 2013-08-23 11:51:00
    Writing application : mkvmerge v6.3.0 ( You can t stop me! ) built on Jun 28 2013 20:09:41
    Writing library : libebml v1.3.0 + libmatroska v1.4.0
    Attachment : Yes

    Video
    ID : 1
    Format : AVC
    Format/Info : Advanced Video Codec
    Format profile : [email protected]
    Format settings, CABAC : Yes
    Format settings, ReFrames : 3 frames
    Codec ID : V_MPEG4/ISO/AVC
    Duration : 3h 22mn
    Bit rate : 2 200 Kbps
    Width : 1 280 pixels
    Height : 720 pixels
    Display aspect ratio : 16:9
    Frame rate mode : Constant
    Frame rate : 23.976 fps
    Color space : YUV
    Chroma subsampling : 4:2:0
    Bit depth : 8 bits
    Scan type : Progressive
    Bits/(Pixel*Frame) : 0.100
    Stream size : 3.07 GiB (77%)
    Title : The Godfather Part II 1974 BluRay 720p AC3 x264-CtHts
    Writing library : x264 core 114 r1924M 08d04a4
    Encoding settings : cabac=1 / ref=2 / deblock=1:0:0 / analyse=0x3:0x133 / me=hex / subme=7 / psy=1 / psy_rd=1.00:0.20 / mixed_ref=1 / me_range=16 / chroma_me=1 / trellis=1 / 8x8dct=1 / cqm=0 / deadzone=21,11 / fast_pskip=1 / chroma_qp_offset=-3 / threads=12 / sliced_threads=0 / nr=0 / decimate=1 / interlaced=0 / constrained_intra=0 / bframes=3 / b_pyramid=1 / b_adapt=2 / b_bias=0 / direct=3 / weightb=1 / open_gop=0 / weightp=2 / keyint=230 / keyint_min=23 / scenecut=40 / intra_refresh=0 / rc_lookahead=40 / rc=2pass / mbtree=1 / bitrate=2200 / ratetol=1.0 / qcomp=0.60 / qpmin=10 / qpmax=51 / qpstep=4 / cplxblur=20.0 / qblur=0.5 / ip_ratio=1.40 /

    aq=1:1.00
    Language : English
    Default : Yes
    Forced : No

    Audio #1
    ID : 2
    Format : AC-3
    Format/Info : Audio Coding 3
    Mode extension : CM (complete main)
    Format settings, Endianness : Big
    Codec ID : A_AC3
    Duration : 3h 22mn
    Bit rate mode : Constant
    Bit rate : 224 Kbps
    Channel(s) : 2 channels
    Channel positions : Front: L R
    Sampling rate : 48.0 KHz
    Bit depth : 16 bits
    Compression mode : Lossy
    Stream size : 324 MiB (8%)
    Title : Thai AC-3 2.0 at 224 Kbps BluRay Master
    Language : Thai
    Default : Yes
    Forced : No

    Audio #2
    ID : 3
    Format : AC-3
    Format/Info : Audio Coding 3
    Mode extension : CM (complete main)
    Format settings, Endianness : Big
    Codec ID : A_AC3
    Duration : 3h 22mn
    Bit rate mode : Constant
    Bit rate : 384 Kbps
    Channel(s) : 6 channels
    Channel positions : Front: L C R, Side: L R, LFE
    Sampling rate : 48.0 KHz
    Bit depth : 16 bits
    Compression mode : Lossy
    Stream size : 555 MiB (14%)
    Title : English AC-3 5.1 at 384 Kbps
    Language : English
    Default : No
    Forced : No

    Text #1
    ID : 4
    Format : VobSub
    Muxing mode : zlib
    Codec ID : S_VOBSUB
    Codec ID/Info : The same subtitle format used on DVDs
    Title : Thai 480p White
    Language : Thai
    Default : No
    Forced : No

    Text #2
    ID : 5
    Format : VobSub
    Muxing mode : zlib
    Codec ID : S_VOBSUB
    Codec ID/Info : The same subtitle format used on DVDs
    Title : Thai 1080p White
    Language : Thai
    Default : Yes
    Forced : No

    Text #3
    ID : 6
    Format : VobSub
    Muxing mode : zlib
    Codec ID : S_VOBSUB
    Codec ID/Info : The same subtitle format used on DVDs
    Title : Thai 1080p BluRay Master
    Language : Thai
    Default : No
    Forced : No

    Text #4
    ID : 7
    Format : PGS
    Muxing mode : zlib
    Codec ID : S_HDMV/PGS
    Codec ID/Info : The same subtitle format used on BDs/HD-DVDs
    Title : Thai PGS BluRay Master
    Language : Thai
    Default : No
    Forced : No

    Text #5
    ID : 8
    Format : VobSub
    Muxing mode : zlib
    Codec ID : S_VOBSUB
    Codec ID/Info : The same subtitle format used on DVDs
    Title : English 1080p BluRay Master
    Language : English
    Default : No
    Forced : No

    Text #6
    ID : 9
    Format : PGS
    Muxing mode : zlib
    Codec ID : S_HDMV/PGS
    Codec ID/Info : The same subtitle format used on BDs/HD-DVDs
    Title : English PGS BluRay Master
    Language : English
    Default : No
    Forced : No

    Text #7
    ID : 10
    Format : ASS
    Codec ID : S_TEXT/ASS
    Codec ID/Info : Advanced Sub Station Alpha
    Compression mode : Lossless
    Title : English ASS
    Language : English
    Default : No
    Forced : No

    Text #8
    ID : 11
    Format : UTF-8
    Codec ID : S_TEXT/UTF8
    Codec ID/Info : UTF-8 Plain Text
    Title : English SRT
    Language : English
    Default : No
    Forced : No



    The Godfather Part III 1990 BluRay 720p AC3 x264-CtHts
    The Godfather : Part III - เดอะ ก็อดฟาเธอร์ ภาค 3

    ประเภท/Type :
    Drama/Romance
    Mafia/Gangster

    สร้างโดย/Studio : Paramount

    รายละเอียดเรื่องย่อ/Synopsis
    บทสุดท้ายของมหากาพย์ไตรภาคแห่งตระกูลคอร์ลีโอเน่ อัล ปาชิโน่กลับมาอีกครั้ง ในบทผู้นำแห่งตระกูลผู้ทรงอิทธิพลล้นฟ้า ไมเคิล คอร์ลีโอเน่ ในช่วงวัยหกสิบกว่า คิดสำนึกผิดกับสิ่งเลวร้ายที่เคยทำไปในอดีต เพื่อลบล้างความรู้สึกผิดนี้เขาจึงต้องการปลดปล่อยคร อบครัวให้เป็นอิสระจากโลกอาชญากรรม เรื่องราวภาคต่อที่มีคนรอชมมายาวนาน ยังคงเข้มข้นด้วเรื่องของอำนาจ การสืบทอด เจตนารมณ์ การแก้แค้นและความรัก จากฝีมือการกำกับของฟรานซิส ฟอร์ด คอปโปลาพร้อมด้วยเหล่านักแสดง อัล ปาชิโน, แอนดี้ การ์เซีย, ไดแอน คีตั้น, ทาเรีย ไชร์, เอลลี่ วอลแลค, โซเฟีย คอปโปลาและโจ แมนเตจนา และอีกมากมาย ในภาคสุดท้ายของมหากาพย์ไตรภาคได้รับการเสนอชื่อเข้า ชิงรางวัลออสการ์ประจำปี 1990 ถึง 7 สาขา รวมถึงสาขาภาพยนตร์ยอดเยี่ยม

    นักแสดง/Actors :
    - Al Pacino
    - Diane Keaton
    - Talia Shire
    - Andy Garcia
    - Eli Wallach
    - Joe Mantegna
    - Bridget Fonda
    - George Hamilton
    - Sofia Coppola

    ผู้กำกับ/Directors :
    - Francis Ford Coppola


    General
    Unique ID : 239894102412078324075551663840109021868 (0xB479EC6C9359B3B481BA6704B3EC4AAC)
    Complete name : L:nfsdownload[m-HD] The Godfather Trilogy 1972-1990 BluRay 720p AC3 x264-CtHtsThe

    Godfather Part III 1990 BluRay 720p AC3 x264-CtHts.mkv
    Format : Matroska
    Format version : Version 4 / Version 2
    File size : 3.38 GiB
    Duration : 2h 50mn
    Overall bit rate : 2 838 Kbps
    Movie name : The Godfather Part III 1990 BluRay 720p AC3 x264-CtHts
    Encoded date : UTC 2013-08-23 11:57:37
    Writing application : mkvmerge v6.3.0 ( You can t stop me! ) built on Jun 28 2013 20:09:41
    Writing library : libebml v1.3.0 + libmatroska v1.4.0
    Attachment : Yes

    Video
    ID : 1
    Format : AVC
    Format/Info : Advanced Video Codec
    Format profile : [email protected]
    Format settings, CABAC : Yes
    Format settings, ReFrames : 3 frames
    Codec ID : V_MPEG4/ISO/AVC
    Duration : 2h 50mn
    Bit rate : 2 200 Kbps
    Width : 1 280 pixels
    Height : 720 pixels
    Display aspect ratio : 16:9
    Frame rate mode : Constant
    Frame rate : 23.976 fps
    Color space : YUV
    Chroma subsampling : 4:2:0
    Bit depth : 8 bits
    Scan type : Progressive
    Bits/(Pixel*Frame) : 0.100
    Stream size : 2.58 GiB (77%)
    Title : The Godfather Part III 1990 BluRay 720p AC3 x264-CtHts
    Writing library : x264 core 114 r1924M 08d04a4
    Encoding settings : cabac=1 / ref=2 / deblock=1:0:0 / analyse=0x3:0x133 / me=hex / subme=7 / psy=1 / psy_rd=1.00:0.20 / mixed_ref=1 / me_range=16 / chroma_me=1 / trellis=1 / 8x8dct=1 / cqm=0 / deadzone=21,11 / fast_pskip=1 / chroma_qp_offset=-3 / threads=12 / sliced_threads=0 / nr=0 / decimate=1 / interlaced=0 / constrained_intra=0 / bframes=3 / b_pyramid=1 / b_adapt=2 / b_bias=0 / direct=3 / weightb=1 / open_gop=0 / weightp=2 / keyint=230 / keyint_min=23 / scenecut=40 / intra_refresh=0 / rc_lookahead=40 / rc=2pass / mbtree=1 / bitrate=2200 / ratetol=1.0 / qcomp=0.60 / qpmin=10 / qpmax=51 / qpstep=4 / cplxblur=20.0 / qblur=0.5 / ip_ratio=1.40 /

    aq=1:1.00
    Language : English
    Default : Yes
    Forced : No

    Audio #1
    ID : 2
    Format : AC-3
    Format/Info : Audio Coding 3
    Mode extension : CM (complete main)
    Format settings, Endianness : Big
    Codec ID : A_AC3
    Duration : 2h 50mn
    Bit rate mode : Constant
    Bit rate : 224 Kbps
    Channel(s) : 2 channels
    Channel positions : Front: L R
    Sampling rate : 48.0 KHz
    Bit depth : 16 bits
    Compression mode : Lossy
    Stream size : 273 MiB (8%)
    Title : Thai AC-3 2.0 at 224 Kbps BluRay Master
    Language : Thai
    Default : Yes
    Forced : No

    Audio #2
    ID : 3
    Format : AC-3
    Format/Info : Audio Coding 3
    Mode extension : CM (complete main)
    Format settings, Endianness : Big
    Codec ID : A_AC3
    Duration : 2h 50mn
    Bit rate mode : Constant
    Bit rate : 384 Kbps
    Channel(s) : 6 channels
    Channel positions : Front: L C R, Side: L R, LFE
    Sampling rate : 48.0 KHz
    Bit depth : 16 bits
    Compression mode : Lossy
    Stream size : 468 MiB (14%)
    Title : English AC-3 5.1 at 384 Kbps
    Language : English
    Default : No
    Forced : No

    Text #1
    ID : 4
    Format : VobSub
    Muxing mode : zlib
    Codec ID : S_VOBSUB
    Codec ID/Info : The same subtitle format used on DVDs
    Title : Thai 480p White
    Language : Thai
    Default : No
    Forced : No

    Text #2
    ID : 5
    Format : VobSub
    Muxing mode : zlib
    Codec ID : S_VOBSUB
    Codec ID/Info : The same subtitle format used on DVDs
    Title : Thai 1080p White
    Language : Thai
    Default : Yes
    Forced : No

    Text #3
    ID : 6
    Format : VobSub
    Muxing mode : zlib
    Codec ID : S_VOBSUB
    Codec ID/Info : The same subtitle format used on DVDs
    Title : Thai 1080p BluRay Master
    Language : Thai
    Default : No
    Forced : No

    Text #4
    ID : 7
    Format : PGS
    Muxing mode : zlib
    Codec ID : S_HDMV/PGS
    Codec ID/Info : The same subtitle format used on BDs/HD-DVDs
    Title : Thai PGS BluRay Master
    Language : Thai
    Default : No
    Forced : No

    Text #5
    ID : 8
    Format : VobSub
    Muxing mode : zlib
    Codec ID : S_VOBSUB
    Codec ID/Info : The same subtitle format used on DVDs
    Title : English 1080p BluRay Master
    Language : English
    Default : No
    Forced : No

    Text #6
    ID : 9
    Format : PGS
    Muxing mode : zlib
    Codec ID : S_HDMV/PGS
    Codec ID/Info : The same subtitle format used on BDs/HD-DVDs
    Title : English PGS BluRay Master
    Language : English
    Default : No
    Forced : No

    Text #7
    ID : 10
    Format : ASS
    Codec ID : S_TEXT/ASS
    Codec ID/Info : Advanced Sub Station Alpha
    Compression mode : Lossless
    Title : English ASS
    Language : English
    Default : No
    Forced : No

    Text #8
    ID : 11
    Format : UTF-8
    Codec ID : S_TEXT/UTF8
    Codec ID/Info : UTF-8 Plain Text
    Title : English SRT
    Language : English
    Default : No
    Forced : No


    The Godfather 1972 BluRay 720p AC3 x264-CtHts.mkv - 3.5 GB
    The Godfather Part II 1974 BluRay 720p AC3 x264-CtHts.mkv - 4.0 GB
    The Godfather Part III 1990 BluRay 720p AC3 x264-CtHts.mkv - 3.4 GB

    1 http://www.mekafile.com/dl.php?f=Vwec70bOq2v2
    2 http://www.mekafile.com/dl.php?f=wLadd4bOq2oP
    3 http://www.mekafile.com/dl.php?f=2071b1bOq2IO

  2. #2
    Senior Member
    Join Date
    Jun 2014
    Posts
    1,159
    Thanks
    0
    Thanked 0 Times in 0 Posts
    ขอบคุณครับ

+ Reply to Thread

Thread Information

Users Browsing this Thread

There are currently 1 users browsing this thread. (0 members and 1 guests)

     

Posting Permissions

  • You may not post new threads
  • You may not post replies
  • You may not post attachments
  • You may not edit your posts