**Spider-Man collection (2002-2017)**


Spider-Man 1 (2002) ไอ้แมงมุม ภาค 1
SS



เรื่องย่อ
หนุ่มวัยรุ่นกำพร้า ปีเตอร์ พาร์คเกอร์ นักเรียนชั้นไฮสคูล ที่อาศัยอยู่กับป้าเมย์และลุงเบ็น วันหนึ่งขณะไปทัศนศึกษา ปีเตอร์ถูกแมงมุมดัดแปลงพันธุกรรมกัด ส่งผลให้ร่างกายของเขาเกิดการเปลี่ยนแปลง ทั้งพลังที่เหนือกว่าคนทั่วไปและมีสัมผัสพิเศษของแมง มุม

ในตอนแรกปีเตอร์ใช้พรสวรรค์ที่ได้มาสนุกไปวันๆ จนเมื่อลุงเบ็นเสียชีวิตจากการฆาตกรรม ปีเตอร์จึงตระหนักกับคำสอนที่ว่า พลังที่ยิ่งใหญ่มาพร้อมความรับผิดชอบที่ใหญ่ยิ่ง และทำให้เขาเดินสู่เส้นทางของการเป็นฮีโร่ ที่มีศัตรูตัวฉกาจอย่าง กรีน ก็อบลิน ยืนขวางทางอยู่

จับภาพตัวหนัง


MediaInfo :
Video
ID : 1
Format : AVC
Format/Info : Advanced Video Codec
Format profile : [email protected]
Format settings : CABAC / 4 Ref Frames
Format settings, CABAC : Yes
Format settings, RefFrames : 4 frames
Codec ID : V_MPEG4/ISO/AVC
Duration : 2 h 1 min
Bit rate mode : Variable
Bit rate : 3 630 kb/s
Maximum bit rate : 100.0 Mb/s
Width : 1 920 pixels
Height : 1 036 pixels
Display aspect ratio : 1.85:1
Frame rate mode : Constant
Frame rate : 23.976 (23976/1000) FPS
Color space : YUV
Chroma subsampling : 4:2:0
Bit depth : 8 bits
Scan type : Progressive
Bits/(Pixel*Frame) : 0.076
Stream size : 3.07 GiB (71%)
Title : {Super Mini-HD 1080p HQ} Spider-Man 2002 BluRay 1080p DTS x264-จิ้งจอกเก้าหาง
Writing library : x264 core 130 r2273 b3065e6
Encoding settings : cabac=1 / ref=4 / deblock=1:0:0 / analyse=0x3:0x133 / me=umh / subme=11 / psy=1 / psy_rd=1.00:0.15 / mixed_ref=1 / me_range=64 / chroma_me=1 / trellis=2 / 8x8dct=1 / cqm=0 / deadzone=21,11 / fast_pskip=1 / chroma_qp_offset=-3 / threads=16 / lookahead_threads=1 / sliced_threads=0 / nr=0 / decimate=1 / interlaced=0 / bluray_compat=0 / constrained_intra=0 / bframes=4 / b_pyramid=2 / b_adapt=2 / b_bias=0 / direct=3 / weightb=1 / open_gop=0 / weightp=2 / keyint=250 / keyint_min=23 / scenecut=40 / intra_refresh=0 / rc_lookahead=100 / rc=2pass / mbtree=1 / bitrate=3630 / ratetol=1.0 / qcomp=0.60 / qpmin=0 / qpmax=69 / qpstep=4 / cplxblur=20.0 / qblur=0.5 / vbv_maxrate=99999 / vbv_bufsize=99999 / nal_hrd=vbr / ip_ratio=1.40 / aq=1:1.00
Language : English
Default : Yes
Forced : No
Audio #1
ID : 2
Format : AC-3
Format/Info : Audio Coding 3
Commercial name : Dolby Digital
Codec ID : A_AC3
Duration : 2 h 1 min
Bit rate mode : Constant
Bit rate : 640 kb/s
Channel(s) : 6 channels
Channel layout : L R C LFE Ls Rs
Sampling rate : 48.0 kHz
Frame rate : 31.250 FPS (1536 SPF)
Bit depth : 16 bits
Compression mode : Lossy
Stream size : 555 MiB (13%)
Title : [THAI AC3 FROM BLU-RAY MASTER]
Language : Thai
Service kind : Complete Main
Default : Yes
Forced : No
Audio #2
ID : 3
Format : DTS
Format/Info : Digital Theater Systems
Codec ID : A_DTS
Duration : 2 h 1 min
Bit rate mode : Constant
Bit rate : 755 kb/s
Channel(s) : 6 channels
Channel layout : C L R Ls Rs LFE
Sampling rate : 48.0 kHz
Frame rate : 93.750 FPS (512 SPF)
Bit depth : 24 bits
Compression mode : Lossy
Stream size : 654 MiB (15%)
Title : ENG DTS
Language : English
Default : No
Forced : No
Text #1
ID : 4
Format : VobSub
Codec ID : S_VOBSUB
Codec ID/Info : Picture based subtitle format used on DVDs
Duration : 1 h 52 min
Bit rate : 2 121 b/s
Count of elements : 1190
Stream size : 1.70 MiB (0%)
Title : [SUB THAI 480P FROM BLU-RAY]
Language : Thai
Default : No
Forced : No

Text #2
ID : 5
Format : VobSub
Codec ID : S_VOBSUB
Codec ID/Info : Picture based subtitle format used on DVDs
Duration : 1 h 52 min
Bit rate : 7 516 b/s
Count of elements : 1190
Stream size : 6.03 MiB (0%)
Title : [SUB THAI 1080P FROM BLU-RAY]
Language : Thai
Default : No
Forced : No

Text #3
ID : 6
Format : PGS
Codec ID : S_HDMV/PGS
Codec ID/Info : Picture based subtitle format used on BDs/HD-DVDs
Duration : 1 h 52 min
Bit rate : 26.3 kb/s
Count of elements : 2380
Stream size : 21.1 MiB (0%)
Title : [SUB THAI PGS FROM BLU-RAY]
Language : Thai
Default : No
Forced : No
Text #4
ID : 7
Format : PGS
Codec ID : S_HDMV/PGS
Codec ID/Info : Picture based subtitle format used on BDs/HD-DVDs
Duration : 1 h 52 min
Bit rate : 28.0 kb/s
Count of elements : 2400
Stream size : 22.4 MiB (1%)
Title : [SUB ENG PGS FROM BLU-RAY]
Language : English
Default : No
Forced : No

Text #5
ID : 8
Format : VobSub
Codec ID : S_VOBSUB
Codec ID/Info : Picture based subtitle format used on DVDs
Duration : 1 h 52 min
Bit rate : 2 380 b/s
Count of elements : 1200
Stream size : 1.91 MiB (0%)
Title : [SUB ENG 480P FROM BLU-RAY]
Language : English
Default : No
Forced : No

Spider-Man 2 (2004) ไอ้แมงมุม ภาค 2
ss


เรื่องย่อ
เมื่อ ปีเตอร์ พาร์คเกอร์ หรือ สไปเดอร์แมน เดินทางมาถึงทางเลือกครั้งสำคัญ ระหว่่างการเป็นซูเปอร์ฮีโร่คอยช่วยเหลือเพื่อนมนุษย ์ หรือกลับมาใช้ชีวิตแบบนักศีกษาธรรมดาทั่วไป ของขวัญและคำสาปจากพลังพิเศษที่เขาได้รับ ทำให้ปีเตอร์ต้องพยายามหาทางรักษาสมดุลของสองตัวตนที ่เขาเป็น

ยิ่งไปกว่านั้น บุคคลอันเป็นที่รักกำลังตกอยู่ในอันตรายจากการเปิดเผ ยตัวตนของเขา ไม่ว่าจะเป็น แมรี่ เจน หญิงสาวที่เขาหลงรัก หรือ ป้าเมย์ ญาติเพียงคนเดียวที่เหลืออยู่ แม้แต่มิตรภาพระหว่างปีเตอร์และเพื่อนสนิทอย่าง แฮร์รี่ ออสบอร์น ก็ต้องตกอยุ่ในเงามืด เมื่อแฮร์รี่รู้ว่าพ่อของเขาตายด้วยน้ำมือของไอ้แมงม ุม

จับภาพตัวหนัง


MediaInfo :
Video
ID : 1
Format : AVC
Format/Info : Advanced Video Codec
Format profile : [email protected]
Format settings : CABAC / 4 Ref Frames
Format settings, CABAC : Yes
Format settings, RefFrames : 4 frames
Codec ID : V_MPEG4/ISO/AVC
Duration : 2 h 7 min
Bit rate mode : Variable
Bit rate : 3 380 kb/s
Maximum bit rate : 100.0 Mb/s
Width : 1 920 pixels
Height : 804 pixels
Display aspect ratio : 2.40:1
Frame rate mode : Constant
Frame rate : 23.976 (23976/1000) FPS
Color space : YUV
Chroma subsampling : 4:2:0
Bit depth : 8 bits
Scan type : Progressive
Bits/(Pixel*Frame) : 0.091
Stream size : 3.01 GiB (73%)
Title : {Super Mini-HD 1080p HQ} Spider-Man 2 2004 BluRay 1080p DTS x264-จิ้งจอกเก้าหาง
Writing library : x264 core 130 r2273 b3065e6
Encoding settings : cabac=1 / ref=4 / deblock=1:0:0 / analyse=0x3:0x133 / me=umh / subme=11 / psy=1 / psy_rd=1.00:0.15 / mixed_ref=1 / me_range=64 / chroma_me=1 / trellis=2 / 8x8dct=1 / cqm=0 / deadzone=21,11 / fast_pskip=1 / chroma_qp_offset=-3 / threads=16 / lookahead_threads=1 / sliced_threads=0 / nr=0 / decimate=1 / interlaced=0 / bluray_compat=0 / constrained_intra=0 / bframes=4 / b_pyramid=2 / b_adapt=2 / b_bias=0 / direct=3 / weightb=1 / open_gop=0 / weightp=2 / keyint=250 / keyint_min=23 / scenecut=40 / intra_refresh=0 / rc_lookahead=100 / rc=2pass / mbtree=1 / bitrate=3380 / ratetol=1.0 / qcomp=0.60 / qpmin=0 / qpmax=69 / qpstep=4 / cplxblur=20.0 / qblur=0.5 / vbv_maxrate=99999 / vbv_bufsize=99999 / nal_hrd=vbr / ip_ratio=1.40 / aq=1:1.00
Language : English
Default : Yes
Forced : No
Audio #1
ID : 2
Format : AC-3
Format/Info : Audio Coding 3
Commercial name : Dolby Digital
Codec ID : A_AC3
Duration : 2 h 7 min
Bit rate mode : Constant
Bit rate : 448 kb/s
Channel(s) : 6 channels
Channel layout : L R C LFE Ls Rs
Sampling rate : 48.0 kHz
Frame rate : 31.250 FPS (1536 SPF)
Bit depth : 16 bits
Compression mode : Lossy
Stream size : 408 MiB (10%)
Title : [THAI AC3 FROM BLU-RAY MASTER]
Language : Thai
Service kind : Complete Main
Default : Yes
Forced : No
Audio #2
ID : 3
Format : DTS
Format/Info : Digital Theater Systems
Codec ID : A_DTS
Duration : 2 h 7 min
Bit rate mode : Constant
Bit rate : 755 kb/s
Channel(s) : 6 channels
Channel layout : C L R Ls Rs LFE
Sampling rate : 48.0 kHz
Frame rate : 93.750 FPS (512 SPF)
Bit depth : 24 bits
Compression mode : Lossy
Stream size : 688 MiB (16%)
Title : ENG DTS
Language : English
Default : No
Forced : No
Text #1
ID : 4
Format : VobSub
Codec ID : S_VOBSUB
Codec ID/Info : Picture based subtitle format used on DVDs
Duration : 1 h 58 min
Bit rate : 1 783 b/s
Count of elements : 1113
Stream size : 1.51 MiB (0%)
Title : [SUB THAI 480P FROM BLU-RAY]
Language : Thai
Default : No
Forced : No

Text #2
ID : 5
Format : VobSub
Codec ID : S_VOBSUB
Codec ID/Info : Picture based subtitle format used on DVDs
Duration : 1 h 58 min
Bit rate : 6 335 b/s
Count of elements : 1113
Stream size : 5.38 MiB (0%)
Title : [SUB THAI 1080P FROM BLU-RAY]
Language : Thai
Default : No
Forced : No

Text #3
ID : 6
Format : PGS
Codec ID : S_HDMV/PGS
Codec ID/Info : Picture based subtitle format used on BDs/HD-DVDs
Duration : 1 h 58 min
Bit rate : 22.2 kb/s
Count of elements : 2226
Stream size : 18.9 MiB (0%)
Title : [SUB THAI PGS FROM BLU-RAY]
Language : Thai
Default : No
Forced : No

Text #4
ID : 7
Format : PGS
Codec ID : S_HDMV/PGS
Codec ID/Info : Picture based subtitle format used on BDs/HD-DVDs
Duration : 1 h 58 min
Bit rate : 22.2 kb/s
Count of elements : 2226
Stream size : 18.9 MiB (0%)
Title : [SUB THAI PGS FROM BLU-RAY] UNDER
Language : Thai
Default : No
Forced : No
Text #5
ID : 8
Format : PGS
Codec ID : S_HDMV/PGS
Codec ID/Info : Picture based subtitle format used on BDs/HD-DVDs
Duration : 1 h 58 min
Bit rate : 22.1 kb/s
Count of elements : 2188
Stream size : 18.8 MiB (0%)
Title : [SUB ENG PGS FROM BLU-RAY]
Language : English
Default : No
Forced : No

Text #6
ID : 9
Format : VobSub
Codec ID : S_VOBSUB
Codec ID/Info : Picture based subtitle format used on DVDs
Duration : 1 h 58 min
Bit rate : 1 874 b/s
Count of elements : 1092
Stream size : 1.59 MiB (0%)
Title : [SUB ENG 480P FROM BLU-RAY]
Language : English
Default : No
Forced : No

Spider-Man 3 (2007) ไอ้แมงมุม 3
SS


เรื่องย่อ
ปีเตอร์ ปาร์คเกอร์ ต้องแบกภาระทั้งสองอย่างไปพร้อมๆ กัน นั่นคือการทุ่มเทให้กับ แมรี่ เจน และการทำหน้าที่ในฐานะซูเปอร์ฮีโร่ แต่เมื่อชุดไอ้แมงมุมของเขาเปลี่ยนเป็นสีดำที่มาพร้อ มพลังที่เพิ่มขึ้น มันทำให้ปีเตอร์หลงระเริงต่ออำนาจใหม่นี้ เขากลายเป็นคนผยองก้าวร้าว และเมินเฉยต่อคนที่เขาเคยห่วงใยมากที่สุด

และเมื่อสองวายร้ายที่น่ากลัวอย่าง แซนแมน และอสรพิษวีนอม รวมพลังกันเพื่อชำระแค้น มันคือศึกครั้งยิ่งใหญ่ของปีเตอร์ ที่ไม่เพียงแต่ต้องรับมือศัตรูร้ายภายนอกเท่านั้น แต่ยังต้องต่อสู้กับจิตใจภายในของเขาเอง เพื่อค้นหาตัวตนที่แท้จริงที่ทำให้ไอ้แมงมุม คือ ...ยอดวีรบุรุษ

จับภาพตัวหนัง


MediaInfo :
Video
ID : 1
Format : AVC
Format/Info : Advanced Video Codec
Format profile : [email protected]
Format settings : CABAC / 4 Ref Frames
Format settings, CABAC : Yes
Format settings, RefFrames : 4 frames
Codec ID : V_MPEG4/ISO/AVC
Duration : 2 h 19 min
Bit rate mode : Variable
Bit rate : 2 950 kb/s
Maximum bit rate : 100.0 Mb/s
Width : 1 920 pixels
Height : 800 pixels
Display aspect ratio : 2.40:1
Frame rate mode : Constant
Frame rate : 23.976 FPS
Color space : YUV
Chroma subsampling : 4:2:0
Bit depth : 8 bits
Scan type : Progressive
Bits/(Pixel*Frame) : 0.080
Stream size : 2.85 GiB (66%)
Title : {Super Mini-HD 1080p HQ} Spider-Man 3 2007 BluRay 1080p DTS x264-จิ้งจอกเก้าหาง
Writing library : x264 core 130 r2273 b3065e6
Encoding settings : cabac=1 / ref=4 / deblock=1:0:0 / analyse=0x3:0x133 / me=umh / subme=11 / psy=1 / psy_rd=1.00:0.15 / mixed_ref=1 / me_range=64 / chroma_me=1 / trellis=2 / 8x8dct=1 / cqm=0 / deadzone=21,11 / fast_pskip=1 / chroma_qp_offset=-3 / threads=16 / lookahead_threads=1 / sliced_threads=0 / nr=0 / decimate=1 / interlaced=0 / bluray_compat=0 / constrained_intra=0 / bframes=4 / b_pyramid=2 / b_adapt=2 / b_bias=0 / direct=3 / weightb=1 / open_gop=0 / weightp=2 / keyint=250 / keyint_min=23 / scenecut=40 / intra_refresh=0 / rc_lookahead=100 / rc=2pass / mbtree=1 / bitrate=2950 / ratetol=1.0 / qcomp=0.60 / qpmin=0 / qpmax=69 / qpstep=4 / cplxblur=20.0 / qblur=0.5 / vbv_maxrate=99999 / vbv_bufsize=99999 / nal_hrd=vbr / ip_ratio=1.40 / aq=1:1.00
Language : English
Default : Yes
Forced : No
Audio #1
ID : 2
Format : AC-3
Format/Info : Audio Coding 3
Commercial name : Dolby Digital
Codec ID : A_AC3
Duration : 2 h 19 min
Bit rate mode : Constant
Bit rate : 640 kb/s
Channel(s) : 6 channels
Channel layout : L R C LFE Ls Rs
Sampling rate : 48.0 kHz
Frame rate : 31.250 FPS (1536 SPF)
Bit depth : 16 bits
Compression mode : Lossy
Stream size : 637 MiB (15%)
Title : [THAI AC3 FROM BLU-RAY MASTER]
Language : Thai
Service kind : Complete Main
Default : Yes
Forced : No
Audio #2
ID : 3
Format : DTS
Format/Info : Digital Theater Systems
Codec ID : A_DTS
Duration : 2 h 19 min
Bit rate mode : Constant
Bit rate : 755 kb/s
Channel(s) : 6 channels
Channel layout : C L R Ls Rs LFE
Sampling rate : 48.0 kHz
Frame rate : 93.750 FPS (512 SPF)
Bit depth : 24 bits
Compression mode : Lossy
Stream size : 751 MiB (17%)
Title : ENG DTS
Language : English
Default : No
Forced : No
Text #1
ID : 4
Format : VobSub
Codec ID : S_VOBSUB
Codec ID/Info : Picture based subtitle format used on DVDs
Title : [SUB THAI 480P FROM BLU-RAY]
Language : Thai
Default : No
Forced : No

Text #2
ID : 5
Format : VobSub
Codec ID : S_VOBSUB
Codec ID/Info : Picture based subtitle format used on DVDs
Title : [SUB THAI 1080P FROM BLU-RAY]
Language : Thai
Default : No
Forced : No

Text #3
ID : 6
Format : PGS
Codec ID : S_HDMV/PGS
Codec ID/Info : Picture based subtitle format used on BDs/HD-DVDs
Title : [SUB THAI PGS FROM BLU-RAY]
Language : Thai
Default : No
Forced : No

Text #4
ID : 7
Format : PGS
Codec ID : S_HDMV/PGS
Codec ID/Info : Picture based subtitle format used on BDs/HD-DVDs
Title : [SUB THAI PGS FROM BLU-RAY] UNDER
Language : Thai
Default : No
Forced : No
Text #5
ID : 8
Format : PGS
Codec ID : S_HDMV/PGS
Codec ID/Info : Picture based subtitle format used on BDs/HD-DVDs
Title : [SUB ENG PGS FROM BLU-RAY]
Language : English
Default : No
Forced : No

Text #6
ID : 9
Format : VobSub
Codec ID : S_VOBSUB
Codec ID/Info : Picture based subtitle format used on DVDs
Title : [SUB ENG 480P FROM BLU-RAY]
Language : English
Default : No
Forced : No

The Amazing Spider-Man 2 (2014) ดิ อะเมซิ่ง สไปเดอร์แมน 2
SS


เรื่องย่อ
เรื่องราวของ สไปเดอร์แมน หรือ ปีเตอร์ ปาร์คเกอร์ เมื่อเขาต้องแบกรับภาระปกป้องผู้คนจากเหล่าร้าย พร้อมกับแบ่งเวลาให้กับผู้หญิงที่เขารักอย่าง เกว็น ด้วยในเวลาเดียวกัน

อย่างไรก็ดี ความเปลี่ยนแปลงครั้งใหญ่ได้เกิดขึ้น เมือเขาต้องเผชิญกับศัตรูตัวฉกาจ อิเลคโตร ผู้มีไฟฟ้าเป็นอาวุธ และ เดอะ ไรโน มนุษย์แรดจอมพลัง พร้อมกับการกลับมาของ แฮร์รี่ ออสบอร์น เพื่อนเก่าของเขา ซึ่งทำให้ปีเตอร์ได้ตระหนักได้ว่าตัวร้ายที่เขากำลัง เผชิญ มีจุดร่วมอยู่อย่างเดียวก็คือ ‘ออสคอร์ป’ !

จับภาพตัวหนัง


MediaInfo :
Video
ID : 1
Format : AVC
Format/Info : Advanced Video Codec
Format profile : [email protected]
Format settings : CABAC / 5 Ref Frames
Format settings, CABAC : Yes
Format settings, RefFrames : 5 frames
Codec ID : V_MPEG4/ISO/AVC
Duration : 2 h 21 min
Bit rate : 9 546 kb/s
Width : 1 920 pixels
Height : 800 pixels
Display aspect ratio : 2.40:1
Frame rate mode : Constant
Frame rate : 23.976 (24000/1001) FPS
Color space : YUV
Chroma subsampling : 4:2:0
Bit depth : 8 bits
Scan type : Progressive
Bits/(Pixel*Frame) : 0.259
Stream size : 9.43 GiB (81%)
Writing library : x264 core 142 r2453 ea0ca51
Encoding settings : cabac=1 / ref=5 / deblock=1:0:0 / analyse=0x3:0x133 / me=umh / subme=7 / psy=1 / psy_rd=1.00:0.00 / mixed_ref=1 / me_range=16 / chroma_me=1 / trellis=1 / 8x8dct=1 / cqm=0 / deadzone=21,11 / fast_pskip=1 / chroma_qp_offset=-2 / threads=8 / lookahead_threads=1 / sliced_threads=0 / nr=0 / decimate=1 / interlaced=0 / bluray_compat=0 / constrained_intra=0 / bframes=3 / b_pyramid=2 / b_adapt=2 / b_bias=0 / direct=3 / weightb=1 / open_gop=0 / weightp=2 / keyint=250 / keyint_min=23 / scenecut=40 / intra_refresh=0 / rc_lookahead=50 / rc=2pass / mbtree=1 / bitrate=9546 / ratetol=1.0 / qcomp=0.60 / qpmin=0 / qpmax=69 / qpstep=4 / cplxblur=20.0 / qblur=0.5 / ip_ratio=1.40 / aq=1:1.00
Language : English
Default : Yes
Forced : No

Audio #1
ID : 2
Format : DTS
Format/Info : Digital Theater Systems
Codec ID : A_DTS
Duration : 2 h 21 min
Bit rate mode : Constant
Bit rate : 1 509 kb/s
Channel(s) : 6 channels
Channel layout : C L R Ls Rs LFE
Sampling rate : 48.0 kHz
Frame rate : 93.750 FPS (512 SPF)
Bit depth : 24 bits
Compression mode : Lossy
Stream size : 1.49 GiB (13%)
Language : English
Default : Yes
Forced : No
Audio #2
ID : 3
Format : AC-3
Format/Info : Audio Coding 3
Commercial name : Dolby Digital
Codec ID : A_AC3
Duration : 2 h 21 min
Bit rate mode : Constant
Bit rate : 640 kb/s
Channel(s) : 6 channels
Channel layout : L R C LFE Ls Rs
Sampling rate : 48.0 kHz
Frame rate : 31.250 FPS (1536 SPF)
Bit depth : 16 bits
Compression mode : Lossy
Delay relative to video : 1 s 0 ms
Stream size : 648 MiB (5%)
Language : Thai
Service kind : Complete Main
Default : No
Forced : No

Text #1
ID : 4
Format : PGS
Muxing mode : zlib
Codec ID : S_HDMV/PGS
Codec ID/Info : Picture based subtitle format used on BDs/HD-DVDs
Duration : 2 h 10 min
Bit rate : 46.2 kb/s
Count of elements : 3320
Stream size : 43.1 MiB (0%)
Title : AngsanaUPC
Language : Thai
Default : Yes
Forced : No

Text #2
ID : 5
Format : PGS
Muxing mode : zlib
Codec ID : S_HDMV/PGS
Codec ID/Info : Picture based subtitle format used on BDs/HD-DVDs
Duration : 2 h 10 min
Bit rate : 41.5 kb/s
Count of elements : 3320
Stream size : 38.7 MiB (0%)
Title : Tahoma
Language : Thai
Default : No
Forced : No

Text #3
ID : 6
Format : VobSub
Muxing mode : zlib
Codec ID : S_VOBSUB
Codec ID/Info : Picture based subtitle format used on DVDs
Duration : 2 h 10 min
Bit rate : 10.2 kb/s
Count of elements : 1660
Stream size : 9.55 MiB (0%)
Title : AngsanaUPC
Language : Thai
Default : No
Forced : No

Text #4
ID : 7
Format : VobSub
Muxing mode : zlib
Codec ID : S_VOBSUB
Codec ID/Info : Picture based subtitle format used on DVDs
Duration : 2 h 10 min
Bit rate : 9 245 b/s
Count of elements : 1660
Stream size : 8.62 MiB (0%)
Title : Tahoma
Language : Thai
Default : No
Forced : No
Text #5
ID : 8
Format : UTF-8
Codec ID : S_TEXT/UTF8
Codec ID/Info : UTF-8 Plain Text
Duration : 2 h 10 min
Bit rate : 55 b/s
Count of elements : 1687
Stream size : 53.0 KiB (0%)
Title : English
Language : English
Default : No
Forced : No

Text #6
ID : 9
Format : UTF-8
Codec ID : S_TEXT/UTF8
Codec ID/Info : UTF-8 Plain Text
Duration : 2 h 19 min
Bit rate : 61 b/s
Count of elements : 2143
Stream size : 63.3 KiB (0%)
Title : English SDH
Language : English
Default : No
Forced : No

Spider-Man Homecoming (2017) สไปเดอร์แมน โฮมคัมมิ่ง
SS


เรื่องย่อ
ทอม ฮอลแลนด์ เปิดตัวในฐานะปีเตอร์ ปาร์คเกอร์/สไปเดอร์ แมน ไปใน Captain America: Civil War ซึ่งมันเป็นจุดเริ่มต้นของการนำทางไปสู่การค้นพบตัวต นของเขาในฐานะซูปเปอร์ฮีโร่สไปเดอร์ แมน ใน Spider-Man: Homecoming กระตุ้นความตื่นเต้นเร้าใจด้วยประสบการณ์ของเขากับเห ล่าอเวนเจอร์ส ปีเตอร์จะกลับไปยังบ้านของเขา ที่ซึ่งเขาอาศัยอยู่กับป้าเมย์ (เมริซา โทเม) ภายใต้การดูแลของโทนี่ สตาร์ค (โรเบิร์ต ดาวนีย์ จูเนียร์) ที่ปรึกษาคนใหม่ของเขา ปีเตอร์พยายามอย่างหนักเพื่อจะย้อนกลับไปใช้ชีวิตธรร มดาเดิม ๆ ทุกวัน แต่เขากลับต้องวอกแวกเพราะความคิดที่ว่าเขาต้องการที ่จะพิสูจน์ตัวเองว่าเขามีอะไรที่มากกว่าการเป็นแค่สไ ปเดอร์ แมนเพื่อนบ้านผู้เป็นมิตรของคุณเท่านั้น และเมื่อวัลเจอร์ (ไมเคิล คีตัน) ปรากฏตัวออกมาในฐานะวายร้ายคนใหม่ ทุกสิ่งทุกอย่างที่ปีเตอร์ถือว่ามันเป็นสิ่งที่สำคัญ ที่สุดมันจะถูกคุกคาม

จับภาพตัวหนัง


MediaInfo :
Video
ID : 1
Format : AVC
Format/Info : Advanced Video Codec
Format profile : [email protected]
Format settings : CABAC / 4 Ref Frames
Format settings, CABAC : Yes
Format settings, RefFrames : 4 frames
Codec ID : V_MPEG4/ISO/AVC
Duration : 2 h 54 min
Bit rate mode : Variable
Bit rate : 5 956 kb/s
Maximum bit rate : 15.0 Mb/s
Width : 1 920 pixels
Height : 1 080 pixels
Display aspect ratio : 16:9
Frame rate mode : Constant
Frame rate : 23.976 (24000/1001) FPS
Color space : YUV
Chroma subsampling : 4:2:0
Bit depth : 8 bits
Scan type : Progressive
Bits/(Pixel*Frame) : 0.120
Stream size : 7.28 GiB (77%)
Title : Spid[email protected]CtHts
Language : English
Default : Yes
Forced : No
Color range : Limited
Color primaries : BT.709
Transfer characteristics : BT.709
Matrix coefficients : BT.709
Audio #1
ID : 2
Format : AC-3
Format/Info : Audio Coding 3
Commercial name : Dolby Digital
Codec ID : A_AC3
Duration : 2 h 54 min
Bit rate mode : Constant
Bit rate : 384 kb/s
Channel(s) : 2 channels
Channel layout : L R
Sampling rate : 48.0 kHz
Frame rate : 31.250 FPS (1536 SPF)
Bit depth : 16 bits
Compression mode : Lossy
Stream size : 481 MiB (5%)
Title : Thai Master
Language : Thai
Service kind : Complete Main
Default : Yes
Forced : Yes
Audio #2
ID : 3
Format : E-AC-3
Format/Info : Enhanced AC-3
Commercial name : Dolby Digital Plus
Codec ID : A_EAC3
Duration : 2 h 54 min
Bit rate mode : Constant
Bit rate : 640 kb/s
Channel(s) : 6 channels
Channel layout : L R C LFE Ls Rs
Sampling rate : 48.0 kHz
Frame rate : 31.250 FPS (1536 SPF)
Compression mode : Lossy
Stream size : 801 MiB (8%)
Title : English DD+ 5.1
Language : English
Service kind : Complete Main
Default : No
Forced : No

Audio #3
ID : 4
Format : AC-3
Format/Info : Audio Coding 3
Commercial name : Dolby Digital
Codec ID : A_AC3
Duration : 2 h 54 min
Bit rate mode : Constant
Bit rate : 640 kb/s
Channel(s) : 6 channels
Channel layout : L R C LFE Ls Rs
Sampling rate : 48.0 kHz
Frame rate : 31.250 FPS (1536 SPF)
Bit depth : 16 bits
Compression mode : Lossy
Stream size : 801 MiB (8%)
Title : English AC3 5.1
Language : English
Service kind : Complete Main
Default : No
Forced : No
Text #1
ID : 5
Format : VobSub
Codec ID : S_VOBSUB
Codec ID/Info : Picture based subtitle format used on DVDs
Title : Thai 480p
Language : Thai
Default : No
Forced : No

Text #2
ID : 6
Format : VobSub
Codec ID : S_VOBSUB
Codec ID/Info : Picture based subtitle format used on DVDs
Title : Thai 720p
Language : Thai
Default : No
Forced : No

Text #3
ID : 7
Format : VobSub
Codec ID : S_VOBSUB
Codec ID/Info : Picture based subtitle format used on DVDs
Title : Thai 1080p
Language : Thai
Default : Yes
Forced : Yes

Text #4
ID : 8
Format : VobSub
Codec ID : S_VOBSUB
Codec ID/Info : Picture based subtitle format used on DVDs
Title : Thai 1080p Yellow
Language : Thai
Default : No
Forced : No

Text #5
ID : 9
Format : VobSub
Codec ID : S_VOBSUB
Codec ID/Info : Picture based subtitle format used on DVDs
Title : Thai 1080p Out
Language : Thai
Default : No
Forced : No

Text #6
ID : 10
Format : VobSub
Codec ID : S_VOBSUB
Codec ID/Info : Picture based subtitle format used on DVDs
Title : Thai 1080p BIG
Language : Thai
Default : No
Forced : No

Text #7
ID : 11
Format : VobSub
Codec ID : S_VOBSUB
Codec ID/Info : Picture based subtitle format used on DVDs
Title : Thai 1080p Out [BIG]
Language : Thai
Default : No
Forced : No

Text #8
ID : 12
Format : PGS
Codec ID : S_HDMV/PGS
Codec ID/Info : Picture based subtitle format used on BDs/HD-DVDs
Title : Thai PGS
Language : Thai
Default : No
Forced : No

Text #9
ID : 13
Format : PGS
Codec ID : S_HDMV/PGS
Codec ID/Info : Picture based subtitle format used on BDs/HD-DVDs
Title : Thai PGS Yellow
Language : Thai
Default : No
Forced : No

Text #10
ID : 14
Format : PGS
Codec ID : S_HDMV/PGS
Codec ID/Info : Picture based subtitle format used on BDs/HD-DVDs
Title : Thai PGS Out
Language : Thai
Default : No
Forced : No
Text #11
ID : 15
Format : VobSub
Codec ID : S_VOBSUB
Codec ID/Info : Picture based subtitle format used on DVDs
Title : English
Language : English
Default : No
Forced : No



Spider-Man (916).mkv - 4.3 GB
http://www.mekafile.com/dl.php?f=P50ac1bPJvqz
Spider-Man 2 (918).mkv - 4.1 GB
http://www.mekafile.com/dl.php?f=wh347cbPJv13
Spider-Man 3 (921).mkv - 4.3 GB
http://www.mekafile.com/dl.php?f=9w3795bPJuGh
Spider-Man- Homecoming (931).mkv - 9.5 GB
http://www.mekafile.com/dl.php?f=0de6e5bPJuQr
The Amazing Spider-Man 2 (928).mkv - 11.6 GB
http://www.mekafile.com/dl.php?f=OJ2f91bPJvcN