+ Reply to Thread
Results 1 to 2 of 2
  1. #1
    Administrators Duckload.us's Avatar
    Join Date
    Dec 2010
    Posts
    106,250
    Thanks
    9
    Thanked 110,187 Times in 51,466 Posts

    Question [ฝรั่ง]-[4K HDR แปลงเป็น 1080p x264] Batman V Superman Dawn of Justice (2016) EXTENDED แบทแมน ปะทะ ซูเปอร์แมน แสงอรุณแห่งยุติธรรม • [พากย์ไทย 5.1 + เสียงอังกฤษ TrueHD 7.1.4 Atmos] • [บรรยายไทย + อังกฤษ]








    Quote:

    เรื่องย่อ
    สำหรับเรื่องราวการปะทะกันของ แบทแมน กับ ซูเปอร์แมน ครั้งนี้ จะคาบเกี่ยวมาจากซูเปอร์แมนในภาค Man of Steel โดยอ้างอิงเหตการณ์ต่อสู้ระหว่างซูเปอร์แมนกับนายพลซ ็อต ที่สร้าางความเสียหายจนเมืองเมโทรโพลิสพังพินาศ ซึ่งบังเอิญ บรูซ เวย์ หรือ แบทแมน ที่อยู่ในเหตุการณ์นั้นได้เห็นถึงพลังอำนาจของซูเปอร ์แมนที่เป็นได้ทั้งคุณและโทษ จนเมื่อเวลาผ่านไป 2 ปี ซูเปอร์แมน ในนามของ คลาร์ก เคนท์ ได้ทำงานเป็นนักข่าว และต้องการสืบหาตัวตนของ แบทแมน ชายลึกลับที่ตั้งตนเป็นศาลเตี้ยกำจัดวายร้ายนอกกฎหมา ย กระแสสังคมที่มีต่อซูเปอร์แมนผู้มีพลังเหนือมนุษย์ ได้แตกออกเป็น 2 ฝั่ง ผู้ที่นับถือเขาเปรียบดังพระเจ้าองค์ใหม่ และผู้คนที่หวาดระแวงในพลังของเขาที่มากเกินควบคุม ความบาดหมางระหว่างแบทแมนกับซูเปอร์แมนที่ค่อยๆ รุนแรงขึ้นเรื่อยๆ ภัยคุกคามเบื้องหลังพวกเขาก็ค่อยๆ ก่อตัวขึ้นอย่างรวดเร็วทำให้มวลมนุษยชาติต้องตกอยู่ใ นอันตรายแบบที่ไม่เคยมีมาก่อน…

    และนี่จึงเป็นโอกาสให้เราได้พบกับการรวมตัวของเหล่าซ ูเปอร์ฮีโร่ฝั่ง DC หลายตัวในภาพยนตร์เรื่องนี้ ทั้ง วันเดอร์ วูแมน, อควาแมน, ไซบอร์ก และ เดอะ แฟลช แม้จะยังไม่รู้ว่าบทสรุปของการปะทะกันครั้งนี้จะจบลง อย่างไร แต่รับรองได้ว่าการปะทะกันครั้งนี้ จะแตกต่างออกไปจากที่ทุกคนเคยพบมาแน่นอน…




    Quote:


    Video
    ID : 1
    Format : AVC
    Format/Info : Advanced Video Codec
    Format profile : [email protected]
    Format settings, CABAC : Yes
    Format settings, ReFrames : 4 frames
    Codec ID : V_MPEG4/ISO/AVC
    Duration : 3 h 2 min
    Bit rate : 7 419 kb/s
    Width : 1 920 pixels
    Height : 1 080 pixels
    Display aspect ratio : 16:9
    Frame rate mode : Constant
    Frame rate : 23.976 (24000/1001) FPS
    Color space : YUV
    Chroma subsampling : 4:2:0
    Bit depth : 8 bits
    Scan type : Progressive
    Bits/(Pixel*Frame) : 0.149
    Stream size : 9.46 GiB (55%)
    Writing library : x264 core 155 r2901 7d0ff22
    Encoding settings : cabac=1 / ref=3 / deblock=1:-1:-1 / analyse=0x3:0x113 / me=hex / subme=7 / psy=1 / psy_rd=1.00:0.15 / mixed_ref=1 / me_range=16 / chroma_me=1 / trellis=1 / 8x8dct=1 / cqm=0 / deadzone=21,11 / fast_pskip=1 / chroma_qp_offset=-3 / threads=6 / lookahead_threads=1 / sliced_threads=0 / nr=0 / decimate=1 / interlaced=0 / bluray_compat=0 / constrained_intra=0 / bframes=3 / b_pyramid=2 / b_adapt=1 / b_bias=0 / direct=1 / weightb=1 / open_gop=0 / weightp=2 / keyint=240 / keyint_min=23 / scenecut=40 / intra_refresh=0 / rc_lookahead=40 / rc=crf / mbtree=1 / crf=20.0 / qcomp=0.60 / qpmin=0 / qpmax=69 / qpstep=4 / vbv_maxrate=62500 / vbv_bufsize=78125 / crf_max=0.0 / nal_hrd=none / filler=0 / ip_ratio=1.40 / aq=1:1.00
    Default : Yes
    Forced : No

    Audio #1
    ID : 2
    Format : Atmos / TrueHD
    Codec ID : A_TRUEHD
    Duration : 3 h 2 min
    Bit rate mode : Variable
    Bit rate : 4 966 kb/s
    Maximum bit rate : 8 199 kb/s
    Channel(s) : Object Based / 8 channels
    Channel positions : Object Based / Front: L C R, Side: L R, Back: L R, LFE
    Sampling rate : / 48.0 kHz
    Frame rate : 1 200.000 FPS (40 spf)
    Compression mode : Lossless
    Stream size : 6.33 GiB (37%)
    Language : English
    Default : Yes
    Forced : No

    Audio #2
    ID : 3
    Format : AC-3
    Format/Info : Audio Coding 3
    Mode extension : CM (complete main)
    Format settings, Endianness : Big
    Codec ID : A_AC3
    Duration : 3 h 2 min
    Bit rate mode : Constant
    Bit rate : 448 kb/s
    Channel(s) : 6 channels
    Channel positions : Front: L C R, Side: L R, LFE
    Sampling rate : 48.0 kHz
    Frame rate : 31.250 FPS (1536 spf)
    Bit depth : 16 bits
    Compression mode : Lossy
    Stream size : 585 MiB (3%)
    Language : English
    Default : No
    Forced : No

    Audio #3
    ID : 4
    Format : AC-3
    Format/Info : Audio Coding 3
    Mode extension : CM (complete main)
    Format settings, Endianness : Big
    Codec ID : A_AC3
    Duration : 3 h 2 min
    Bit rate mode : Constant
    Bit rate : 448 kb/s
    Channel(s) : 6 channels
    Channel positions : Front: L C R, Side: L R, LFE
    Sampling rate : 48.0 kHz
    Frame rate : 31.250 FPS (1536 spf)
    Bit depth : 16 bits
    Compression mode : Lossy
    Stream size : 585 MiB (3%)
    Title : Thai Modified From DVD Master by Junjao
    Language : Thai
    Default : No
    Forced : Yes

    Text #1
    ID : 5
    Format : VobSub
    Muxing mode : zlib
    Codec ID : S_VOBSUB
    Codec ID/Info : Picture based subtitle format used on DVDs
    Duration : 2 h 54 min
    Bit rate : 1 773 b/s
    Count of elements : 429
    Stream size : 2.22 MiB (0%)
    Title : Thai For EXTENDED Part Only
    Language : Thai
    Default : Yes
    Forced : Yes

    Text #2
    ID : 6
    Format : VobSub
    Muxing mode : zlib
    Codec ID : S_VOBSUB
    Codec ID/Info : Picture based subtitle format used on DVDs
    Duration : 3 h 2 min
    Bit rate : 1 957 b/s
    Count of elements : 1618
    Stream size : 2.55 MiB (0%)
    Title : Thai 480p
    Language : Thai
    Default : No
    Forced : No

    Text #3
    ID : 7
    Format : VobSub
    Muxing mode : zlib
    Codec ID : S_VOBSUB
    Codec ID/Info : Picture based subtitle format used on DVDs
    Duration : 3 h 2 min
    Bit rate : 3 274 b/s
    Count of elements : 1618
    Stream size : 4.27 MiB (0%)
    Title : Thai 720p
    Language : Thai
    Default : No
    Forced : No

    Text #4
    ID : 8
    Format : VobSub
    Muxing mode : zlib
    Codec ID : S_VOBSUB
    Codec ID/Info : Picture based subtitle format used on DVDs
    Duration : 3 h 2 min
    Bit rate : 5 530 b/s
    Count of elements : 1618
    Stream size : 7.21 MiB (0%)
    Title : Thai 1080p
    Language : Thai
    Default : No
    Forced : No

    Text #5
    ID : 9
    Format : VobSub
    Muxing mode : zlib
    Codec ID : S_VOBSUB
    Codec ID/Info : Picture based subtitle format used on DVDs
    Duration : 3 h 2 min
    Bit rate : 5 529 b/s
    Count of elements : 1618
    Stream size : 7.21 MiB (0%)
    Title : Thai 1080p Yellow
    Language : Thai
    Default : No
    Forced : No

    Text #6
    ID : 10
    Format : VobSub
    Muxing mode : zlib
    Codec ID : S_VOBSUB
    Codec ID/Info : Picture based subtitle format used on DVDs
    Duration : 3 h 2 min
    Bit rate : 5 530 b/s
    Count of elements : 1618
    Stream size : 7.21 MiB (0%)
    Title : Thai 1080p Out
    Language : Thai
    Default : No
    Forced : No

    Text #7
    ID : 11
    Format : VobSub
    Muxing mode : zlib
    Codec ID : S_VOBSUB
    Codec ID/Info : Picture based subtitle format used on DVDs
    Duration : 3 h 2 min
    Bit rate : 7 982 b/s
    Count of elements : 1618
    Stream size : 10.4 MiB (0%)
    Title : Thai 1080p BIG
    Language : Thai
    Default : No
    Forced : No

    Text #8
    ID : 12
    Format : VobSub
    Muxing mode : zlib
    Codec ID : S_VOBSUB
    Codec ID/Info : Picture based subtitle format used on DVDs
    Duration : 3 h 2 min
    Bit rate : 7 982 b/s
    Count of elements : 1618
    Stream size : 10.4 MiB (0%)
    Title : Thai 1080p Out [BIG]
    Language : Thai
    Default : No
    Forced : No

    Text #9
    ID : 13
    Format : PGS
    Muxing mode : zlib
    Codec ID : S_HDMV/PGS
    Codec ID/Info : Picture based subtitle format used on BDs/HD-DVDs
    Duration : 3 h 2 min
    Bit rate : 22.3 kb/s
    Count of elements : 3242
    Stream size : 29.1 MiB (0%)
    Title : Thai PGS BluRay Master
    Language : Thai
    Default : No
    Forced : No

    Text #10
    ID : 14
    Format : PGS
    Muxing mode : zlib
    Codec ID : S_HDMV/PGS
    Codec ID/Info : Picture based subtitle format used on BDs/HD-DVDs
    Duration : 3 h 2 min
    Bit rate : 22.3 kb/s
    Count of elements : 3236
    Stream size : 29.1 MiB (0%)
    Title : Thai PGS Out
    Language : Thai
    Default : No
    Forced : No

    Text #11
    ID : 15
    Format : VobSub
    Muxing mode : zlib
    Codec ID : S_VOBSUB
    Codec ID/Info : Picture based subtitle format used on DVDs
    Duration : 3 h 2 min
    Bit rate : 6 942 b/s
    Count of elements : 1914
    Stream size : 9.05 MiB (0%)
    Title : English
    Language : English
    Default : No
    Forced : No

























    http://cornfile.com/pzlkz6wxvtuq
    http://www.mekafile.com/dl.php?f=at0a2dbPTc3M

  2. The Following User Says Thank You to Duckload.us For This Useful Post:

    agg001 (02-11-2019)

  3. #2
    Senior Member
    Join Date
    Jun 2012
    Posts
    1,189
    Thanks
    0
    Thanked 1 Time in 1 Post
    ขอบคุณครับ

+ Reply to Thread

Thread Information

Users Browsing this Thread

There are currently 1 users browsing this thread. (0 members and 1 guests)

     

Posting Permissions

  • You may not post new threads
  • You may not post replies
  • You may not post attachments
  • You may not edit your posts