While You Were Sleeping
Broadcast network: SBS 2017-Sep-27 to 2017-Nov-16 Wed-Thu 22:00 (2 episodes back-to-back)
Genre: Fantasy / Legal / Romance
Episodes: 32 (35 minutes/episode)
Screenwriter: Park Hye Ryun
Director: Oh Choong Hwan
นักแสดง
Lee Jong Suk as Jung Jae Chan
Bae Suzy as Nam Hong Joo
Lee Sang Yeob as Lee Yoo Bum
Jung Hae In as Han Woo Tak

Others
Park Jin Joo as Public Official
Kim Min Jae
Shin Jae Ha as Jae Chan’s younger brother
Go Sung Hee as Shin Hee Min
Min Sung Wook as Lee Ji Kwang
Kim Won Hae as Choi Dam Dong
Lee Ki Young as Park Dae Young
Bae Hye Sun as Son Woo Joo
Hwang Young Hee as Yoon Moon Sun
Son San as Min Jang Ha
Jang Hyun Sung
Uhm Hyo Sup
Pyo Ye Jin
Oh Ui Shik
Lee Do Kyum

Cameo
Kim So Hyun
Choi Won Young
Yoon Kyun Sang
Lee Sung Kyung
Nam Da Reum

เรื่องราวของผู้หญิงที่สามารถมองเห็นอุบัติเหตุที่เก ิดขึ้นในอนาคตผ่านความฝันของเธอ กับพนักงานอัยการที่พยายามจะยับยั้งความฝันไม่ให้กลา ยเป็นจริง อีจองซอกรับบทเป็นพนักงานอัยการแจจุงชานซึ่งชีวิตของ เขาต้องยุ่งเหยิงหลังจากที่เขาย้ายที่อยู่ใหม่เพื่อท ำงาน และได้พบกับผู้หญิงที่โชคร้าย ซูจีรับบทเป็นนักข่าวนัมฮงจู ที่กำลังรอโอกาสในการทำงานและรู้สึกไร้อำนาจที่รู้ว่ าจะเกิดอะไรขึ้นในอนาคต แต่ไม่สามารถเปลี่ยนแปลงได้ เรื่องเริ่มต้นขึ้นเมื่อทั้งสองพบกัน พวกเขาจะสามารถแก้ปัญหาได้หรือไม่

Quote:
While.You.Were.Sleeping.E27.171109.1080p-NEXT.mkv
Format : Matroska
Format version : Version 4 / Version 2
File size : 1.17 GiB
Duration : 30 min 30 s
Overall bit rate : 5 477 kb/s
Encoded date : UTC 2017-11-10 12:46:10
Writing application : mkvmerge v10.0.0 ( To Drown In You ) 64bit
Writing library : libebml v1.3.4 + libmatroska v1.4.5

Video
ID : 1
Format : AVC
Format/Info : Advanced Video Codec
Format profile : [email protected]
Format settings : CABAC / 1 Ref Frames
Format settings, CABAC : Yes
Format settings, RefFrames : 1 frame
Format settings, GOP : M=1, N=30
Codec ID : V_MPEG4/ISO/AVC
Duration : 30 min 30 s
Bit rate : 5 074 kb/s
Width : 1 920 pixels
Height : 1 080 pixels
Display aspect ratio : 16:9
Frame rate mode : Constant
Frame rate : 29.970 (30000/1001) FPS
Color space : YUV
Chroma subsampling : 4:2:0
Bit depth : 8 bits
Scan type : Progressive
Bits/(Pixel*Frame) : 0.082
Stream size : 1.08 GiB (93%)
Default : Yes
Forced : No

Audio
ID : 2
Format : AAC
Format/Info : Advanced Audio Codec
Format profile : LC
Codec ID : A_AAC-2
Duration : 30 min 30 s
Bit rate : 317 kb/s
Channel(s) : 2 channels
Channel positions : Front: L R
Sampling rate : 48.0 kHz
Frame rate : 46.875 FPS (1024 SPF)
Compression mode : Lossy
Stream size : 69.2 MiB (6%)
Default : Yes
Forced : No

Text #1
ID : 3
Format : VobSub
Muxing mode : zlib
Codec ID : S_VOBSUB
Codec ID/Info : Picture based subtitle format used on DVDs
Duration : 30 min 11 s
Bit rate : 10.3 kb/s
Count of elements : 455
Stream size : 2.22 MiB (0%)
Title : 1080p
Language : Thai
Default : Yes
Forced : No

Text #2
ID : 4
Format : PGS
Muxing mode : zlib
Codec ID : S_HDMV/PGS
Codec ID/Info : Picture based subtitle format used on BDs/HD-DVDs
Duration : 30 min 11 s
Bit rate : 31.2 kb/s
Count of elements : 910
Stream size : 6.74 MiB (1%)
Language : Thai
Default : No
Forced : No

Text #3
ID : 5
Format : VobSub
Muxing mode : zlib
Codec ID : S_VOBSUB
Codec ID/Info : Picture based subtitle format used on DVDs
Duration : 30 min 11 s
Bit rate : 10.3 kb/s
Count of elements : 455
Stream size : 2.22 MiB (0%)
Title : 1080p Yellow
Language : Thai
Default : No
Forced : No

Text #4
ID : 6
Format : PGS
Muxing mode : zlib
Codec ID : S_HDMV/PGS
Codec ID/Info : Picture based subtitle format used on BDs/HD-DVDs
Duration : 30 min 11 s
Bit rate : 31.4 kb/s
Count of elements : 910
Stream size : 6.79 MiB (1%)
Title : Yellow
Language : Thai
Default : No
Forced : No

Text #5
ID : 7
Format : UTF-8
Codec ID : S_TEXT/UTF8
Codec ID/Info : UTF-8 Plain Text
Duration : 30 min 11 s
Bit rate : 175 b/s
Count of elements : 461
Stream size : 38.8 KiB (0%)
Default : No
Forced : No




ซับไทย PGS





1
http://www.filecondo.com/dl.php?f=xb5e731GWRdV
2
http://www.filecondo.com/dl.php?f=naa1c31GWReL
3
http://www.filecondo.com/dl.php?f=e91c741GWRfJ
4
http://www.filecondo.com/dl.php?f=hfb7671GWRgI
5
http://www.filecondo.com/dl.php?f=Cd3fff1GWRhF
6
http://www.filecondo.com/dl.php?f=hb496a1GWRiI
7
http://www.filecondo.com/dl.php?f=589c891GWRjC
8
http://www.filecondo.com/dl.php?f=l8fa9e1GWRkB
9
http://www.filecondo.com/dl.php?f=V5663d1GWRly
10
http://www.filecondo.com/dl.php?f=S022471GWRmB
11
http://www.filecondo.com/dl.php?f=2e33501GWRnv
12
http://www.filecondo.com/dl.php?f=bcfe331GWRos
13
http://www.filecondo.com/dl.php?f=m81c8b1GWRpo
14
http://www.filecondo.com/dl.php?f=X6a7961GWRqk
15
http://www.filecondo.com/dl.php?f=pb01261GWRrf
16
http://www.filecondo.com/dl.php?f=z67b6a1GWRse
17
http://www.filecondo.com/dl.php?f=l2375e1GWRtd
18
http://www.filecondo.com/dl.php?f=R4cbdf1GWRua
19
http://www.filecondo.com/dl.php?f=4543f61GWRv8
20
http://www.filecondo.com/dl.php?f=ha2d2d1GWRw8
21
http://www.filecondo.com/dl.php?f=Zaf7ec1GWRx2
22
http://www.filecondo.com/dl.php?f=xb46441GWRy1
23
http://www.filecondo.com/dl.php?f=2c3b641GWRyZ
24
http://www.filecondo.com/dl.php?f=E0d68e1GWRzX
25
http://www.filecondo.com/dl.php?f=f6d1261GWRAV
26
http://www.filecondo.com/dl.php?f=S518c21GWRBT
27
http://www.filecondo.com/dl.php?f=9a2abd1GWRCR
28
http://www.filecondo.com/dl.php?f=0746a11GWRDO
29
http://www.filecondo.com/dl.php?f=2d087e1GWREN
30
http://www.filecondo.com/dl.php?f=V1a8461GWRFL
31
http://www.filecondo.com/dl.php?f=ef7b571GWRGI
32
http://www.filecondo.com/dl.php?f=v556501GWRHG