••• [email protected] •••
พากย์ไทยโรง 2.0 + เสียงอังกฤษ 2.0


Dumbo จากดิสนีย์และผู้กำกับมากจินตนาการ ทิม เบอร์ตัน ภาพยนตร์ไลฟ์-แอ็คชั่นผจญภัยสุดยิ่งใหญ่เรื่องใหม่ “ดัมโบ้” จากเรื่องราวสุดคลาสสิคอันเป็นที่รัก ที่ซึ่งความแตกต่างเป็นเรื่องน่ายินดี ครอบครัวรักใคร่แน่นแฟ้น และความฝันโบยบิน เจ้าของคณะละครสัตว์ แม็กซ์ เมดิซี่ (แดนนี่ เดอวีโต้) ขอให้อดีตนักแสดง โฮลท์ ฟาริเออร์ (โคลิน ฟาร์เรล) และลูกๆของเขา มิลลี่ (นิโค พาร์คเกอร์) และ โจ (ฟินลีย์ ฮ็อบบินส์) ดูแลลูกช้างเกิดใหม่ ที่ใบหูขนาดใหญ่กว่าปกติ ทำให้เขาถูกหัวเราะเยาะ ในคณะละครสัตว์ที่สถานภาพไม่ค่อยจะสู้ดีอยู่แล้ว แต่เมื่อพวกเขาได้รู้ว่าดัมโบ้บินได้

คณะละครสัตว์ก็กลับมาเป็นที่นิยมอีกครั้งอย่างไม่น่า เชื่อ จนเข้าตานักธุรกิจผู้คร่ำหวอดอย่าง วี.เอ. แวนเดเวอร์ (ไมเคิล คีตัน) ที่คอยสรรหาสัตว์ใหญ่ที่มีความแปลกประหลาดสำหรับ ดรีมแลนด์ อัครสถานความบันเทิงสุดยิ่งใหญ่แห่งใหม่ล่าสุดของเขา ดัมโบ้ทะยานไปสู่ความสำเร็จคู่ไปกับนักกายกรรมผาดโผน ผู้มีเสน่ห์และฝีมือจัดจ้าน คอเลตต์ มาร์แชนท์ (เอวา กรีน) จนกระทั่งโฮลท์ได้รู้ว่าภายใต้ประกายวับวามภายนอกของ มัน ดรีมแลนด์ เต็มไปด้วยความลับอันดำมืด

Format : Matroska
Format version : Version 4
File size : 2.54 GiB
Duration : 1 h 40 min
Overall bit rate : 3 629 kb/s
Movie name : [email protected]

Video
ID : 1
Format : AVC
Format/Info : Advanced Video Codec
Format profile : [email protected]
Format settings : CABAC / 5 Ref Frames
Format settings, CABAC : Yes
Format settings, ReFrames : 5 frames
Codec ID : V_MPEG4/ISO/AVC
Duration : 1 h 40 min
Bit rate mode : Variable
Bit rate : 3 000 kb/s
Maximum bit rate : 18.0 Mb/s
Width : 1 280 pixels
Height : 620 pixels
Display aspect ratio : 2.065
Frame rate mode : Constant
Frame rate : 29.970 (30000/1001) FPS
Standard : Component
Color space : YUV
Chroma subsampling : 4:2:0
Bit depth : 8 bits
Scan type : Progressive
Bits/(Pixel*Frame) : 0.126
Stream size : 2.11 GiB (83%)
Title : [email protected]
Writing library : x264 core 148
Encoding settings : cabac=1 / ref=5 / deblock=1:0:0 / analyse=0x3:0x113 / me=hex / subme=7 / psy=1 / psy_rd=1.00:0.00 / mixed_ref=1 / me_range=16 / chroma_me=1 / trellis=1 / 8x8dct=1 / cqm=1 / deadzone=21,11 / fast_pskip=1 / chroma_qp_offset=-2 / threads=12 / lookahead_threads=2 / sliced_threads=0 / slices=1 / nr=0 / decimate=1 / interlaced=0 / minigop=0 / stitchable=1 / constrained_intra=0 / bframes=3 / b_pyramid=0 / b_adapt=1 / b_bias=0 / direct=1 / weightb=1 / open_gop=0 / weightp=2 / keyint=250 / keyint_min=25 / scenecut=40 / intra_refresh=0 / rc_lookahead=40 / rc=abr / mbtree=1 / bitrate=3000 / ratetol=1.0 / qcomp=0.60 / qpmin=3 / qpmax=69 / qpstep=4 / vbv_maxrate=18000 / vbv_bufsize=18000 / nal_hrd=vbr / filler=0 / ip_ratio=1.40 / aq=1:1.00
Language : English
Default : Yes
Forced : No
Color range : Limited
Color primaries : BT.709
Transfer characteristics : BT.709
Matrix coefficients : BT.709

Audio 1
ID : 2
Format : AC-3
Format/Info : Audio Coding 3
Commercial name : Dolby Digital
Codec ID : A_AC3
Duration : 1 h 40 min
Bit rate mode : Constant
Bit rate : 384 kb/s
Channel(s) : 2 channels
Channel layout : L R
Sampling rate : 48.0 kHz
Frame rate : 31.250 FPS (1536 SPF)
Bit depth : 16 bits
Compression mode : Lossy
Stream size : 275 MiB (11%)
Title : ThaiRong 2.0 @ 384 kb/s By [email protected]
Language : Thai
Service kind : Complete Main
Default : Yes
Forced : Yes

Audio 2
ID : 3
Format : AC-3
Format/Info : Audio Coding 3
Commercial name : Dolby Digital
Codec ID : A_AC3
Duration : 1 h 40 min
Bit rate mode : Constant
Bit rate : 224 kb/s
Channel(s) : 2 channels
Channel layout : L R
Sampling rate : 48.0 kHz
Frame rate : 31.250 FPS (1536 SPF)
Bit depth : 16 bits
Compression mode : Lossy
Stream size : 161 MiB (6%)
Title : English 2.0 @ 224 kb/s
Language : English
Service kind : Complete Main
Default : No
Forced : No




Download: cornfile
http://cornfile.com/2o7co3nsw05n
Download: mekafile
http://www.mekafile.com/dl.php?f=c0245dbSgUCR