ผลงานเจาะลึกแบบใกล้ชิดที่ติดตามการแสดงของบียอนเซ่ใ นงานเทศกาลดนตรีโคเชลล่า 2018
เผยให้เห็นตั้งแต่แนวคิดสุดสร้างสรรค์ไปสู่ความเคลื่ อนไหวทางวัฒนธรรมที่เต็มเปี่ยมไปด้วยอารมณ์...!!!


Format : Matroska
Format version : Version 4
File size : 7.17 GiB
Duration : 2 h 17 min
File size : 7.17 GiB
Duration : 2 h 17 min
Overall bit rate mode : Variable
Overall bit rate : 7 441 kb/s

Video
ID : 1
Format : AVC
Format/Info : Advanced Video Codec
Format profile : [email protected]
Format settings : CABAC / 3 Ref Frames
Format settings, CABAC : Yes
Format settings, RefFrames : 3 frames
Codec ID : V_MPEG4/ISO/AVC
Duration : 2 h 17 min
Bit rate mode : Variable
Bit rate : 6 810 kb/s
Maximum bit rate : 10.2 Mb/s
Width : 1 920 pixels
Height : 1 080 pixels
Display aspect ratio : 16:9
Frame rate mode : Constant
Frame rate : 23.976 (24000/1001) FPS
Color space : YUV
Chroma subsampling : 4:2:0
Bit depth : 8 bits
Scan type : Progressive
Bits/(Pixel*Frame) : 0.137
Stream size : 6.55 GiB (91%)
Writing library : x264 core 148 r2715 7e75228
Encoding settings : cabac=1 / ref=3 / deblock=1:0:0 / analyse=0x1:0x111 / me=umh / subme=10 / psy=1 / psy_rd=1.00:0.00 / mixed_ref=1 / me_range=24 / chroma_me=1 / trellis=2 / 8x8dct=0 / cqm=0 / deadzone=21,11 / fast_pskip=1 / chroma_qp_offset=-2 / threads=8 / lookahead_threads=1 / sliced_threads=0 / nr=0 / decimate=1 / interlaced=0 / bluray_compat=0 / stitchable=1 / constrained_intra=0 / bframes=2 / b_pyramid=0 / b_adapt=2 / b_bias=0 / direct=3 / weightb=1 / open_gop=0 / weightp=2 / keyint=48 / keyint_min=25 / scenecut=0 / intra_refresh=0 / rc_lookahead=48 / rc=2pass / mbtree=1 / bitrate=6810 / ratetol=1.0 / qcomp=0.50 / qpmin=6 / qpmax=51 / qpstep=4 / cplxblur=20.0 / qblur=0.5 / vbv_maxrate=10215 / vbv_bufsize=13620 / nal_hrd=vbr / filler=0 / ip_ratio=1.40 / aq=1:1.00
Default : Yes
Forced : No

Audio
ID : 2
Format : E-AC-3
Format/Info : Enhanced Audio Coding 3
Codec ID : A_EAC3
Duration : 2 h 17 min
Bit rate mode : Constant
Bit rate : 640 kb/s
Channel(s) : 6 channels
Channel positions : Front: L C R, Side: L R, LFE
Sampling rate : 48.0 kHz
Frame rate : 187.500 FPS (256 SPF)
Compression mode : Lossy
Stream size : 631 MiB (9%)
Title : English 5.1
Language : English
Service kind : Complete Main
Default : Yes
Forced : No

Text 1
ID : 3
Format : UTF-8
Codec ID : S_TEXT/UTF8
Codec ID/Info : UTF-8 Plain Text
Duration : 1 h 24 min
Bit rate : 1 b/s
Count of elements : 17
Stream size : 687 Bytes (0%)
Title : Forced
Language : English
Default : Yes
Forced : Yes

Text 2
ID : 4
Format : UTF-8
Codec ID : S_TEXT/UTF8
Codec ID/Info : UTF-8 Plain Text
Duration : 2 h 16 min
Bit rate : 84 b/s
Count of elements : 1903
Stream size : 84.4 KiB (0%)
Language : English
Default : No
Forced : No

Text 3
ID : 5
Format : UTF-8
Codec ID : S_TEXT/UTF8
Codec ID/Info : UTF-8 Plain Text
Duration : 2 h 17 min
Bit rate : 90 b/s
Count of elements : 2061
Stream size : 91.0 KiB (0%)
Title : SDH
Language : English
Default : No
Forced : No

Text 4
ID : 6
Format : UTF-8
Codec ID : S_TEXT/UTF8
Codec ID/Info : UTF-8 Plain Text
Duration : 2 h 16 min
Bit rate : 39 b/s
Count of elements : 771
Stream size : 39.8 KiB (0%)
Language : Arabic
Default : No
Forced : No

Text 5
ID : 7
Format : UTF-8
Codec ID : S_TEXT/UTF8
Codec ID/Info : UTF-8 Plain Text
Duration : 2 h 16 min
Bit rate : 27 b/s
Count of elements : 780
Stream size : 27.1 KiB (0%)
Language : Czech
Default : No
Forced : No

Text 6
ID : 8
Format : UTF-8
Codec ID : S_TEXT/UTF8
Codec ID/Info : UTF-8 Plain Text
Duration : 2 h 16 min
Bit rate : 24 b/s
Count of elements : 693
Stream size : 24.8 KiB (0%)
Language : Danish
Default : No
Forced : No

Text 7
ID : 9
Format : UTF-8
Codec ID : S_TEXT/UTF8
Codec ID/Info : UTF-8 Plain Text
Duration : 2 h 16 min
Bit rate : 28 b/s
Count of elements : 705
Stream size : 28.8 KiB (0%)
Language : German
Default : No
Forced : No

Text 8
ID : 10
Format : UTF-8
Codec ID : S_TEXT/UTF8
Codec ID/Info : UTF-8 Plain Text
Duration : 2 h 16 min
Bit rate : 46 b/s
Count of elements : 754
Stream size : 47.1 KiB (0%)
Language : Greek
Default : No
Forced : No

Text 9
ID : 11
Format : UTF-8
Codec ID : S_TEXT/UTF8
Codec ID/Info : UTF-8 Plain Text
Duration : 2 h 16 min
Bit rate : 26 b/s
Count of elements : 761
Stream size : 26.9 KiB (0%)
Language : Spanish
Default : No
Forced : No

Text 10
ID : 12
Format : UTF-8
Codec ID : S_TEXT/UTF8
Codec ID/Info : UTF-8 Plain Text
Duration : 2 h 16 min
Bit rate : 28 b/s
Count of elements : 792
Stream size : 28.6 KiB (0%)
Title : European
Language : Spanish
Default : No
Forced : No

Text 11
ID : 13
Format : UTF-8
Codec ID : S_TEXT/UTF8
Codec ID/Info : UTF-8 Plain Text
Duration : 2 h 16 min
Bit rate : 22 b/s
Count of elements : 620
Stream size : 23.0 KiB (0%)
Language : Finnish
Default : No
Forced : No

Text 12
ID : 14
Format : UTF-8
Codec ID : S_TEXT/UTF8
Codec ID/Info : UTF-8 Plain Text
Duration : 2 h 16 min
Bit rate : 28 b/s
Count of elements : 721
Stream size : 28.5 KiB (0%)
Language : French
Default : No
Forced : No

Text 13
ID : 15
Format : UTF-8
Codec ID : S_TEXT/UTF8
Codec ID/Info : UTF-8 Plain Text
Duration : 2 h 16 min
Bit rate : 40 b/s
Count of elements : 786
Stream size : 40.4 KiB (0%)
Language : Hebrew
Default : No
Forced : No

Text 14
ID : 16
Format : UTF-8
Codec ID : S_TEXT/UTF8
Codec ID/Info : UTF-8 Plain Text
Duration : 2 h 16 min
Bit rate : 30 b/s
Count of elements : 780
Stream size : 30.5 KiB (0%)
Language : Hungarian
Default : No
Forced : No

Text 15
ID : 17
Format : UTF-8
Codec ID : S_TEXT/UTF8
Codec ID/Info : UTF-8 Plain Text
Duration : 2 h 16 min
Bit rate : 27 b/s
Count of elements : 756
Stream size : 27.6 KiB (0%)
Language : Indonesian
Default : No
Forced : No

Text 16
ID : 18
Format : UTF-8
Codec ID : S_TEXT/UTF8
Codec ID/Info : UTF-8 Plain Text
Duration : 2 h 16 min
Bit rate : 26 b/s
Count of elements : 773
Stream size : 27.0 KiB (0%)
Language : Italian
Default : No
Forced : No

Text 17
ID : 19
Format : UTF-8
Codec ID : S_TEXT/UTF8
Codec ID/Info : UTF-8 Plain Text
Duration : 2 h 16 min
Bit rate : 23 b/s
Count of elements : 742
Stream size : 23.7 KiB (0%)
Language : Japanese
Default : No
Forced : No

Text 18
ID : 20
Format : UTF-8
Codec ID : S_TEXT/UTF8
Codec ID/Info : UTF-8 Plain Text
Duration : 2 h 16 min
Bit rate : 26 b/s
Count of elements : 717
Stream size : 26.0 KiB (0%)
Language : Korean
Default : No
Forced : No

Text 19
ID : 21
Format : UTF-8
Codec ID : S_TEXT/UTF8
Codec ID/Info : UTF-8 Plain Text
Duration : 2 h 16 min
Bit rate : 25 b/s
Count of elements : 750
Stream size : 25.1 KiB (0%)
Language : Norwegian Bokmal
Default : No
Forced : No

Text 20
ID : 22
Format : UTF-8
Codec ID : S_TEXT/UTF8
Codec ID/Info : UTF-8 Plain Text
Duration : 2 h 16 min
Bit rate : 21 b/s
Count of elements : 672
Stream size : 21.5 KiB (0%)
Language : Dutch
Default : No
Forced : No

Text 21
ID : 23
Format : UTF-8
Codec ID : S_TEXT/UTF8
Codec ID/Info : UTF-8 Plain Text
Duration : 2 h 16 min
Bit rate : 24 b/s
Count of elements : 698
Stream size : 24.9 KiB (0%)
Language : Polish
Default : No
Forced : No

Text 22
ID : 24
Format : UTF-8
Codec ID : S_TEXT/UTF8
Codec ID/Info : UTF-8 Plain Text
Duration : 2 h 16 min
Bit rate : 25 b/s
Count of elements : 770
Stream size : 25.7 KiB (0%)
Language : Portuguese
Default : No
Forced : No

Text 23
ID : 25
Format : UTF-8
Codec ID : S_TEXT/UTF8
Codec ID/Info : UTF-8 Plain Text
Duration : 2 h 16 min
Bit rate : 25 b/s
Count of elements : 725
Stream size : 25.8 KiB (0%)
Title : Brazilian
Language : Portuguese
Default : No
Forced : No

Text 24
ID : 26
Format : UTF-8
Codec ID : S_TEXT/UTF8
Codec ID/Info : UTF-8 Plain Text
Duration : 2 h 16 min
Bit rate : 30 b/s
Count of elements : 731
Stream size : 30.4 KiB (0%)
Language : Romanian
Default : No
Forced : No

Text 25
ID : 27
Format : UTF-8
Codec ID : S_TEXT/UTF8
Codec ID/Info : UTF-8 Plain Text
Duration : 2 h 16 min
Bit rate : 40 b/s
Count of elements : 767
Stream size : 40.6 KiB (0%)
Language : Russian
Default : No
Forced : No

Text 26
ID : 28
Format : UTF-8
Codec ID : S_TEXT/UTF8
Codec ID/Info : UTF-8 Plain Text
Duration : 2 h 16 min
Bit rate : 24 b/s
Count of elements : 744
Stream size : 24.3 KiB (0%)
Language : Swedish
Default : No
Forced : No

Text 27
ID : 29
Format : UTF-8
Codec ID : S_TEXT/UTF8
Codec ID/Info : UTF-8 Plain Text
Duration : 2 h 16 min
Bit rate : 62 b/s
Count of elements : 776
Stream size : 62.4 KiB (0%)
Language : Thai
Default : No
Forced : No

Text 28
ID : 30
Format : UTF-8
Codec ID : S_TEXT/UTF8
Codec ID/Info : UTF-8 Plain Text
Duration : 2 h 16 min
Bit rate : 28 b/s
Count of elements : 776
Stream size : 28.3 KiB (0%)
Language : Turkish
Default : No
Forced : No

Text 29
ID : 31
Format : UTF-8
Codec ID : S_TEXT/UTF8
Codec ID/Info : UTF-8 Plain Text
Duration : 2 h 16 min
Bit rate : 36 b/s
Count of elements : 757
Stream size : 36.9 KiB (0%)
Language : Vietnamese
Default : No
Forced : No

Text 30
ID : 32
Format : UTF-8
Codec ID : S_TEXT/UTF8
Codec ID/Info : UTF-8 Plain Text
Duration : 2 h 16 min
Bit rate : 25 b/s
Count of elements : 797
Stream size : 25.1 KiB (0%)
Title : Simplified
Language : Chinese
Default : No
Forced : No

Text 31
ID : 33
Format : UTF-8
Codec ID : S_TEXT/UTF8
Codec ID/Info : UTF-8 Plain Text
Duration : 2 h 16 min
Bit rate : 25 b/s
Count of elements : 782
Stream size : 25.7 KiB (0%)
Title : Traditional
Language : Chinese
Default : No
Forced : No





















http://www.filecondo.com/dl.php?f=O3bfd01HkAx6