เหตุการณ์เกิดขึ้นในอังกฤษในปี 1630 ครอบครัวของ William (Ralph Ineson) และ Katherine (Kate Dickie) ระหกระเหินเพราะถูกขับไล่ออกจากนิคมด้วยเหตุผลบางอย่ าง ทำให้ต้องออกไปหาที่ทางแห่งใหม่เพื่อสร้างบ้าน เพาะปลูกพืช และเลี้ยงสัตว์ เพื่อหาเลี้ยงชีพตน แต่บ้านตั้งอยู่ใกล้กันกับป่า ซึ่งนำมาซึ่งความหลอนน่ากลัวบางอย่างพวกเขามีลูกด้วย กันหลายคน หนึ่งในนั้นคือลูกสาววัยแรกรุ่น Thomasin (Anya Taylor-Joy) ผู้ที่ซึ่งรู้สึกว่ามารดาไม่ค่อยจะรักเธอสักเท่าไหร่ กับน้องชายคนรอง Caleb (Harvey Scrimshaw) ที่ค่อนข้างสนิทกับพ่อ อีกสองเป็นลูกแฝดที่ค่อนข้างซุกซน ไม่ค่อยจะเชื่อฟัง มักจะต่อปากต่อคำกับเธออยู่เป็นปกติ เรื่องราวอันน่าสั่นสะพรึงกำลังจะเกิดกับครอบครัวนี้

Video
ID : 1
Format : HEVC
Format/Info : High Efficiency Video Coding
Format profile : Main [email protected]@High
HDR format : SMPTE ST 2086, HDR10 compatible
Codec ID : V_MPEGH/ISO/HEVC
Duration : 1 h 32 min
Bit rate : 15.7 Mb/s
Width : 3 600 pixels
Height : 2 160 pixels
Display aspect ratio : 5:3
Frame rate mode : Constant
Frame rate : 23.976 (24000/1001) FPS
Color space : YUV
Chroma subsampling : 4:2:0 (Type 2)
Bit depth : 10 bits
Bits/(Pixel*Frame) : 0.084
Stream size : 10.1 GiB (81%)
Writing library : x265 3.0_Au+14-c7e5878bdd31:[Windows][GCC 6.3.0][64 bit] 10bit
Encoding settings : cpuid=1111039 / frame-threads=4 / numa-pools=20 / wpp / no-pmode / no-pme / no-psnr / no-ssim / log-level=2 / input-csp=1 / input-res=3600x2160 / interlace=0 / total-frames=132768 / level-idc=51 / high-tier=1 / uhd-bd=0 / ref=4 / no-allow-non-conformance / repeat-headers / annexb / aud / hrd / info / hash=0 / no-temporal-layers / no-open-gop / min-keyint=1 / keyint=24 / gop-lookahead=0 / bframes=4 / b-adapt=2 / b-pyramid / bframe-bias=0 / rc-lookahead=25 / lookahead-slices=4 / scenecut=40 / radl=0 / no-splice / no-intra-refresh / ctu=64 / min-cu-size=8 / rect / no-amp / max-tu-size=32 / tu-inter-depth=1 / tu-intra-depth=1 / limit-tu=0 / rdoq-level=2 / dynamic-rd=0.00 / no-ssim-rd / signh-i-d-e / no-tskip / nr-intra=0 / nr-inter=0 / no-constrained-intra / no-strong-intra-smoothing / max-merge=3 / limit-refs=3 / limit-modes / me=3 / subme=3 / merange=57 / temporal-mvp / weightp / no-weightb / no-analyze-src-pics / deblock=-3:-3 / no-sao / no-sao-non-deblock / rd=4 / no-early-skip / rskip / no-fast-intra / no-tskip-fast / no-cu-lossless / no-b-intra / no-splitrd-skip / rdpenalty=0 / psy-rd=2.00 / psy-rdoq=1.00 / no-rd-refine / no-lossless / cbqpoffs=0 / crqpoffs=0 / rc=crf / crf=17.0 / qcomp=0.60 / qpstep=4 / stats-write=0 / stats-read=0 / vbv-maxrate=160000 / vbv-bufsize=160000 / vbv-init=0.9 / crf-max=0.0 / crf-min=0.0 / ipratio=1.40 / pbratio=1.30 / aq-mode=2 / aq-strength=1.00 / cutree / zone-count=0 / no-strict-cbr / qg-size=32 / no-rc-grain / qpmax=69 / qpmin=0 / no-const-vbv / sar=1 / overscan=0 / videoformat=5 / range=0 / colorprim=9 / transfer=16 / colormatrix=9 / chromaloc=1 / chromaloc-top=2 / chromaloc-bottom=2 / display-window=0 / master-display=G(13250,34500)B(7500,3000)R(34000,16000)WP (15635,16450)L(10000000,1) / max-cll=347,50 / min-luma=0 / max-luma=1023 / log2-max-poc-lsb=8 / vui-timing-info / vui-hrd-info / slices=1 / no-opt-qp-pps / no-opt-ref-list-length-pps / no-multi-pass-opt-rps / scenecut-bias=0.05 / no-opt-cu-delta-qp / no-aq-motion / hdr / hdr-opt / no-dhdr10-opt / no-idr-recovery-sei / analysis-reuse-level=5 / scale-factor=0 / refine-intra=0 / refine-inter=0 / refine-mv=0 / refine-ctu-distortion=0 / no-limit-sao / ctu-info=0 / no-lowpass-dct / refine-analysis-type=0 / copy-pic=1 / max-ausize-factor=1.0 / no-dynamic-refine / no-single-sei / no-hevc-aq / no-svt / qp-adaptation-range=1.00
Default : Yes
Forced : No
Color range : Limited
Color primaries : BT.2020
Transfer characteristics : PQ
Matrix coefficients : BT.2020 non-constant
Mastering display color primaries : Display P3
Mastering display luminance : min: 0.0001 cd/m2, max: 1000 cd/m2
Maximum Content Light Level : 347 cd/m2
Maximum Frame-Average Light Level : 50 cd/m2

Audio 1
ID : 2
Format : DTS XLL
Format/Info : Digital Theater Systems
Commercial name : DTS-HD Master Audio
Codec ID : A_DTS
Duration : 1 h 32 min
Bit rate mode : Variable
Bit rate : 3 415 kb/s
Channel(s) : 6 channels
Channel layout : C L R Ls Rs LFE
Sampling rate : 48.0 kHz
Frame rate : 93.750 FPS (512 SPF)
Bit depth : 24 bits
Compression mode : Lossless
Stream size : 2.20 GiB (18%)
Language : English
Default : Yes
Forced : No

Audio 2
ID : 3
Format : AC-3
Format/Info : Audio Coding 3
Commercial name : Dolby Digital
Codec ID : A_AC3
Duration : 1 h 32 min
Bit rate mode : Constant
Bit rate : 224 kb/s
Channel(s) : 2 channels
Channel layout : L R
Sampling rate : 48.0 kHz
Frame rate : 31.250 FPS (1536 SPF)
Bit depth : 16 bits
Compression mode : Lossy
Stream size : 148 MiB (1%)
Title : Commentary
Language : English
Service kind : Complete Main
Default : No
Forced : No
Text 1
ID : 4
Format : PGS
Muxing mode : zlib
Codec ID : S_HDMV/PGS
Codec ID/Info : Picture based subtitle format used on BDs/HD-DVDs
Duration : 1 h 27 min
Bit rate : 32.6 kb/s
Count of elements : 1762
Stream size : 20.3 MiB (0%)
Title : AngsanaUPC
Language : Thai
Default : Yes
Forced : No

Text 2
ID : 5
Format : PGS
Muxing mode : zlib
Codec ID : S_HDMV/PGS
Codec ID/Info : Picture based subtitle format used on BDs/HD-DVDs
Duration : 1 h 27 min
Bit rate : 29.9 kb/s
Count of elements : 1762
Stream size : 18.6 MiB (0%)
Title : DilleniaUPC
Language : Thai
Default : No
Forced : No

Text 3
ID : 6
Format : PGS
Muxing mode : zlib
Codec ID : S_HDMV/PGS
Codec ID/Info : Picture based subtitle format used on BDs/HD-DVDs
Duration : 1 h 27 min
Bit rate : 28.8 kb/s
Count of elements : 1762
Stream size : 17.9 MiB (0%)
Title : Tahoma
Language : Thai
Default : No
Forced : No

Text 4
ID : 7
Format : VobSub
Muxing mode : zlib
Codec ID : S_VOBSUB
Codec ID/Info : Picture based subtitle format used on DVDs
Duration : 1 h 27 min
Bit rate : 7 323 b/s
Count of elements : 881
Stream size : 4.56 MiB (0%)
Title : AngsanaUPC
Language : Thai
Default : No
Forced : No

Text 5
ID : 8
Format : VobSub
Muxing mode : zlib
Codec ID : S_VOBSUB
Codec ID/Info : Picture based subtitle format used on DVDs
Duration : 1 h 27 min
Bit rate : 7 098 b/s
Count of elements : 881
Stream size : 4.42 MiB (0%)
Title : DilleniaUPC
Language : Thai
Default : No
Forced : No

Text 6
ID : 9
Format : VobSub
Muxing mode : zlib
Codec ID : S_VOBSUB
Codec ID/Info : Picture based subtitle format used on DVDs
Duration : 1 h 27 min
Bit rate : 6 491 b/s
Count of elements : 881
Stream size : 4.04 MiB (0%)
Title : Tahoma
Language : Thai
Default : No
Forced : No
Text 7
ID : 10
Format : PGS
Muxing mode : zlib
Codec ID : S_HDMV/PGS
Codec ID/Info : Picture based subtitle format used on BDs/HD-DVDs
Duration : 1 h 27 min
Bit rate : 27.4 kb/s
Count of elements : 1912
Stream size : 17.1 MiB (0%)
Language : English
Default : No
Forced : No

Text 8
ID : 11
Format : PGS
Muxing mode : zlib
Codec ID : S_HDMV/PGS
Codec ID/Info : Picture based subtitle format used on BDs/HD-DVDs
Duration : 1 h 27 min
Bit rate : 24.4 kb/s
Count of elements : 1582
Stream size : 15.2 MiB (0%)
Language : Spanish
Default : No
Forced : No




Download: cornfile
http://cornfile.com/qboheyn4nszk
Download: mekafile
http://www.mekafile.com/dl.php?f=eL16b4bTwPii