+ Reply to Thread
Results 1 to 2 of 2
  1. #1
    Administrators Duckload.us's Avatar
    Join Date
    Dec 2010
    Posts
    103,667
    Thanks
    9
    Thanked 106,633 Times in 50,446 Posts

    Question [ฝรั่ง]-Star Trek 2009-2013-2016 - [พากย์ไทย+อังกฤษ] [บรรยายไทย+อังกฤษ]




    Star Trek (2009) สตาร์ เทรค: สงครามพิฆาตจักรวาล

    จุดเริ่มต้นแห่งอนาคต ในภาพยนตร์ดังพลังสูงของผู้กำกับ เจ.เจ. อับรามส์ เป็นพายุบันเทิงพัดหอบผู้ชมให้ติดตามการกลับมาแก้แค้ นจากอนาคตของ โรมูลัน เนโร ที่ทำให้คู่ปรับอย่าง เคิร์ก และ สป็อคต้องกลับมาจับมือกันปฏิบัติภารกิจหยุดยั้งการทำ ลายล้างครั้งยิ่งใหญ่ที่สุดนี้ พร้อมด้วยทีมลูกเรือหน้าใหม่ทั้งหมดบนยานยูเอสเอสเอ็ นเตอร์ไพรส์ จะต้องเผชิญหน้ากับการอันตรายที่ไม่อาจจินตนาการได้ และไม่เคยมีใครได้ย่างกรายมาก่อน

    Duration : 2 h 6 min
    Overall bit rate : 12.1 Mb/s
    Encoded date : UTC 2018-12-10 14:37:57
    Writing application : mkvmerge v29.0.0 ('Like It Or Not') 64-bit
    Writing library : libebml v1.3.6 + libmatroska v1.4.9

    Video
    ID : 1
    Format : HEVC
    Format/Info : High Efficiency Video Coding
    Format profile : Main [email protected]@Main
    Codec ID : V_MPEGH/ISO/HEVC
    Duration : 2 h 6 min
    Bit rate : 10.7 Mb/s
    Width : 3 840 pixels
    Height : 1 598 pixels
    Display aspect ratio : 2.40:1
    Frame rate mode : Constant
    Frame rate : 23.976 (24000/1001) FPS
    Color space : YUV
    Chroma subsampling : 4:2:0
    Bit depth : 10 bits
    Bits/(Pixel*Frame) : 0.073
    Stream size : 9.46 GiB (88%)
    Writing library : x265 2.1+25-0e9e52640546:[Windows][MSVC 1900][64 bit] 10bit
    Encoding settings : wpp / ctu=64 / min-cu-size=8 / max-tu-size=32 / tu-intra-depth=1 / tu-inter-depth=1 / me=1 / subme=2 / merange=57 / no-rect / no-amp / max-merge=2 / temporal-mvp / no-early-skip / rskip / rdpenalty=0 / no-tskip / no-tskip-fast / strong-intra-smoothing / no-lossless / no-cu-lossless / no-constrained-intra / no-fast-intra / open-gop / no-temporal-layers / interlace=0 / keyint=250 / min-keyint=23 / scenecut=40 / rc-lookahead=20 / lookahead-slices=8 / bframes=4 / bframe-bias=0 / b-adapt=2 / ref=3 / limit-refs=3 / no-limit-modes / weightp / no-weightb / aq-mode=1 / qg-size=32 / aq-strength=1.00 / cbqpoffs=0 / crqpoffs=0 / rd=3 / psy-rd=2.00 / rdoq-level=0 / psy-rdoq=0.00 / log2-max-poc-lsb=8 / limit-tu=0 / no-rd-refine / signh-i-d-e / deblock=0:0 / sao / no-sao-non-deblock / b-pyramid / cutree / no-intra-refresh / rc=crf / crf=22.0 / qcomp=0.60 / qpmin=0 / qpmax=69 / qpstep=4 / ipratio=1.40 / pbratio=1.30
    Default : Yes
    Forced : No

    Audio 1
    ID : 2
    Format : DTS
    Format/Info : Digital Theater Systems
    Codec ID : A_DTS
    Duration : 2 h 6 min
    Bit rate mode : Constant
    Bit rate : 756 kb/s
    Channel(s) : 6 channels
    Channel layout : C L R Ls Rs LFE
    Sampling rate : 48.0 kHz
    Frame rate : 93.750 FPS (512 SPF)
    Bit depth : 16 bits
    Compression mode : Lossy
    Stream size : 686 MiB (6%)
    Language : English
    Default : No
    Forced : No

    Audio 2
    ID : 3
    Format : AC-3
    Format/Info : Audio Coding 3
    Commercial name : Dolby Digital
    Codec ID : A_AC3
    Duration : 2 h 6 min
    Bit rate mode : Constant
    Bit rate : 640 kb/s
    Channel(s) : 6 channels
    Channel layout : L R C LFE Ls Rs
    Sampling rate : 48.0 kHz
    Frame rate : 31.250 FPS (1536 SPF)
    Bit depth : 16 bits
    Compression mode : Lossy
    Delay relative to video : 24 ms
    Stream size : 580 MiB (5%)
    Language : Thai
    Service kind : Complete Main
    Default : Yes
    Forced : Yes

    Text 1
    ID : 4
    Format : VobSub
    Muxing mode : zlib
    Codec ID : S_VOBSUB
    Codec ID/Info : Picture based subtitle format used on DVDs
    Duration : 1 h 57 min
    Bit rate : 9 332 b/s
    Count of elements : 1596
    Stream size : 7.83 MiB (0%)
    Language : English
    Default : No
    Forced : No

    Text 2
    ID : 5
    Format : UTF-8
    Codec ID : S_TEXT/UTF8
    Codec ID/Info : UTF-8 Plain Text
    Duration : 1 h 57 min
    Bit rate : 83 b/s
    Count of elements : 1596
    Stream size : 72.0 KiB (0%)
    Language : English
    Default : No
    Forced : No

    Text 3
    ID : 6
    Format : PGS
    Muxing mode : zlib
    Codec ID : S_HDMV/PGS
    Codec ID/Info : Picture based subtitle format used on BDs/HD-DVDs
    Duration : 1 h 58 min
    Bit rate : 41.1 kb/s
    Count of elements : 3193
    Stream size : 34.8 MiB (0%)
    Language : English
    Default : No
    Forced : No

    Text 4
    ID : 7
    Format : VobSub
    Muxing mode : zlib
    Codec ID : S_VOBSUB
    Codec ID/Info : Picture based subtitle format used on DVDs
    Duration : 2 h 5 min
    Bit rate : 5 858 b/s
    Count of elements : 1290
    Stream size : 5.24 MiB (0%)
    Language : Thai
    Default : No
    Forced : No

    Text 5
    ID : 8
    Format : UTF-8
    Codec ID : S_TEXT/UTF8
    Codec ID/Info : UTF-8 Plain Text
    Duration : 2 h 5 min
    Bit rate : 112 b/s
    Count of elements : 1290
    Stream size : 103 KiB (0%)
    Language : Thai
    Default : No
    Forced : No

    Text 6
    ID : 9
    Format : PGS
    Muxing mode : zlib
    Codec ID : S_HDMV/PGS
    Codec ID/Info : Picture based subtitle format used on BDs/HD-DVDs
    Duration : 2 h 6 min
    Bit rate : 27.1 kb/s
    Count of elements : 2581
    Stream size : 24.5 MiB (0%)
    Language : Thai
    Default : Yes
    Forced : Yes







    Star Trek Into Darkness (2013) สตาร์ เทรค ทะยานสู่ห้วงมืด

    เมื่อลูกเรือของยานเอนเตอร์ไพรส์ได้ถูกส่งตัวกลับมาถ ึงดาวโลก พวกเขาได้เผชิญกับพลังที่น่าสะพรึงกลัวและยากจะหยุดย ั้งที่เกิดขึ้นภายในองค์กรของพวกเขาเอง มันได้ทำลายกองยานรบและทุกสิ่งทุกอย่าง ทำให้โลกเข้าสู่สถานการณ์ที่อันตรายอย่างยิ่ง ด้วยความที่เป็นดาวบ้านเกิดของตัวเอง กัปตันเคิร์กจึงรับหน้าที่ในการนำทีมสู่พื้นที่สงครา มเพื่อไล่ล่าคนร้ายที่ครอบครองอาวุธมหาประลัย ในขณะที่สงครามการไล่ล่าที่มีเดิมพันเป็นชีวิตและควา มตายดำเนินไปนั้น ความรักก็ถูกท้าทาย มิตรภาพก็ถูกหั่นสะบั้น และการเสียสละของเหล่าผู้คนที่เปรียบเสมือนครอบครัวท ี่เหลืออยู่ของกัปตันเคิร์ก นั่นคือ ลูกเรือของเขา จะต้องเกิดขึ้นอย่างหลีกเลี่ยงไม่ได้

    Duration : 2 h 12 min
    Overall bit rate : 7 435 kb/s
    Encoded date : UTC 2018-12-10 12:10:03
    Writing application : mkvmerge v29.0.0 ('Like It Or Not') 64-bit
    Writing library : libebml v1.3.6 + libmatroska v1.4.9

    Video
    ID : 1
    Format : HEVC
    Format/Info : High Efficiency Video Coding
    Format profile : Main [email protected]@Main
    Codec ID : V_MPEGH/ISO/HEVC
    Duration : 2 h 12 min
    Bit rate : 5 996 kb/s
    Width : 3 840 pixels
    Height : 2 160 pixels
    Display aspect ratio : 16:9
    Frame rate mode : Constant
    Frame rate : 23.976 (24000/1001) FPS
    Color space : YUV
    Chroma subsampling : 4:2:0
    Bit depth : 10 bits
    Bits/(Pixel*Frame) : 0.030
    Stream size : 5.53 GiB (81%)
    Writing library : x265 2.0+54-e5ca9b210223:[Windows][MSVC 1900][64 bit] 10bit
    Encoding settings : wpp / ctu=64 / min-cu-size=8 / max-tu-size=32 / tu-intra-depth=1 / tu-inter-depth=1 / me=1 / subme=2 / merange=57 / no-rect / no-amp / max-merge=2 / temporal-mvp / early-skip / rskip / rdpenalty=0 / no-tskip / no-tskip-fast / strong-intra-smoothing / no-lossless / no-cu-lossless / no-constrained-intra / fast-intra / open-gop / no-temporal-layers / interlace=0 / keyint=250 / min-keyint=23 / scenecut=40 / rc-lookahead=20 / lookahead-slices=8 / bframes=4 / bframe-bias=0 / b-adapt=2 / ref=3 / limit-refs=3 / no-limit-modes / weightp / no-weightb / aq-mode=3 / qg-size=32 / aq-strength=1.00 / cbqpoffs=0 / crqpoffs=0 / rd=3 / psy-rd=0.30 / rdoq-level=0 / psy-rdoq=0.00 / log2-max-poc-lsb=8 / no-rd-refine / signh-i-d-e / deblock=0:0 / sao / no-sao-non-deblock / b-pyramid / cutree / no-intra-refresh / rc=2 / pass / bitrate=6000 / qcomp=0.60 / qpmin=0 / qpmax=69 / qpstep=4 / cplxblur=20.0 / qblur=1.0 / ipratio=1.40 / pbratio=1.30
    Language : English
    Default : Yes
    Forced : No
    Color range : Full
    Color primaries : BT.709
    Transfer characteristics : BT.709
    Matrix coefficients : BT.709

    Audio 1
    ID : 2
    Format : DTS
    Format/Info : Digital Theater Systems
    Codec ID : A_DTS
    Duration : 2 h 12 min
    Bit rate mode : Constant
    Bit rate : 755 kb/s
    Channel(s) : 6 channels
    Channel layout : C L R Ls Rs LFE
    Sampling rate : 48.0 kHz
    Frame rate : 93.750 FPS (512 SPF)
    Bit depth : 24 bits
    Compression mode : Lossy
    Delay relative to video : 3 ms
    Stream size : 713 MiB (10%)
    Language : English
    Default : No
    Forced : No

    Audio 2
    ID : 3
    Format : AC-3
    Format/Info : Audio Coding 3
    Commercial name : Dolby Digital
    Codec ID : A_AC3
    Duration : 2 h 12 min
    Bit rate mode : Constant
    Bit rate : 640 kb/s
    Channel(s) : 6 channels
    Channel layout : L R C LFE Ls Rs
    Sampling rate : 48.0 kHz
    Frame rate : 31.250 FPS (1536 SPF)
    Bit depth : 16 bits
    Compression mode : Lossy
    Delay relative to video : 24 ms
    Stream size : 605 MiB (9%)
    Language : Thai
    Service kind : Complete Main
    Default : Yes
    Forced : Yes

    Text 1
    ID : 4
    Format : VobSub
    Muxing mode : zlib
    Codec ID : S_VOBSUB
    Codec ID/Info : Picture based subtitle format used on DVDs
    Duration : 2 h 2 min
    Bit rate : 9 440 b/s
    Count of elements : 1974
    Stream size : 8.25 MiB (0%)
    Language : English
    Default : No
    Forced : No

    Text 2
    ID : 5
    Format : UTF-8
    Codec ID : S_TEXT/UTF8
    Codec ID/Info : UTF-8 Plain Text
    Duration : 2 h 2 min
    Bit rate : 86 b/s
    Count of elements : 1974
    Stream size : 77.2 KiB (0%)
    Language : English
    Default : No
    Forced : No

    Text 3
    ID : 6
    Format : PGS
    Muxing mode : zlib
    Codec ID : S_HDMV/PGS
    Codec ID/Info : Picture based subtitle format used on BDs/HD-DVDs
    Duration : 2 h 3 min
    Bit rate : 42.3 kb/s
    Count of elements : 3949
    Stream size : 37.3 MiB (1%)
    Language : English
    Default : No
    Forced : No

    Text 4
    ID : 7
    Format : VobSub
    Muxing mode : zlib
    Codec ID : S_VOBSUB
    Codec ID/Info : Picture based subtitle format used on DVDs
    Duration : 2 h 2 min
    Bit rate : 7 410 b/s
    Count of elements : 1394
    Stream size : 6.48 MiB (0%)
    Language : Thai
    Default : No
    Forced : No

    Text 5
    ID : 8
    Format : UTF-8
    Codec ID : S_TEXT/UTF8
    Codec ID/Info : UTF-8 Plain Text
    Duration : 2 h 2 min
    Bit rate : 139 b/s
    Count of elements : 1394
    Stream size : 125 KiB (0%)
    Language : Thai
    Default : No
    Forced : No

    Text 6
    ID : 9
    Format : PGS
    Muxing mode : zlib
    Codec ID : S_HDMV/PGS
    Codec ID/Info : Picture based subtitle format used on BDs/HD-DVDs
    Duration : 2 h 3 min
    Bit rate : 34.0 kb/s
    Count of elements : 2789
    Stream size : 29.9 MiB (0%)
    Language : Thai
    Default : Yes
    Forced : Yes







    Star Trek Beyond (2016) สตาร์ เทรค ข้ามขอบจักรวาล

    ยานเอ็นเตอร์ไพรซ์กลับสู่ดาวโลกอีกครั้ง แต่แล้วเมื่อโลกถูกรุกรานโดยกลุ่มเอเลี่ยนนิรนาม ฝูงบินสตาร์ฟลีทถูกโจมตีจากภายใน จนก่อเกิดเป็นความเสียหายที่ทำให้โลกถึงคราววิกฤต การเบนเข็มภารกิจจึงเกิดขึ้นอีกครั้ง และนำมาสู่มิตรภาพครั้งใหม่ที่ทำให้กัปตันเคิร์ก (คริส ไพน์) ต้องชั่งใจ เมื่อมันอยู่บนความก้ำกึ่งระหว่างมิตรและศัตรู อนาคตของดาวโลกจะเป็นอย่างไร กัปตันและสมาชิกลูกเรือจะหาทางออกของปัญหาที่พวกเขาต ้องเผชิญได้หรือไม่

    Duration : 2 h 2 min
    Overall bit rate : 13.8 Mb/s
    Movie name : VISIT www.icv-crew.org
    Encoded date : UTC 2018-12-10 14:21:15
    Writing application : mkvmerge v29.0.0 ('Like It Or Not') 64-bit
    Writing library : libebml v1.3.6 + libmatroska v1.4.9

    Video
    ID : 1
    Format : HEVC
    Format/Info : High Efficiency Video Coding
    Format profile : Main [email protected]@Main
    Codec ID : V_MPEGH/ISO/HEVC
    Duration : 2 h 2 min
    Bit rate : 12.4 Mb/s
    Width : 3 840 pixels
    Height : 1 608 pixels
    Display aspect ratio : 2.40:1
    Frame rate mode : Constant
    Frame rate : 23.976 (24000/1001) FPS
    Color space : YUV
    Chroma subsampling : 4:2:0
    Bit depth : 10 bits
    Bits/(Pixel*Frame) : 0.084
    Stream size : 10.6 GiB (90%)
    Writing library : x265 2.1+25-0e9e52640546:[Windows][MSVC 1900][64 bit] 10bit
    Encoding settings : wpp / ctu=64 / min-cu-size=8 / max-tu-size=32 / tu-intra-depth=1 / tu-inter-depth=1 / me=1 / subme=2 / merange=57 / no-rect / no-amp / max-merge=2 / temporal-mvp / no-early-skip / rskip / rdpenalty=0 / no-tskip / no-tskip-fast / strong-intra-smoothing / no-lossless / no-cu-lossless / no-constrained-intra / no-fast-intra / open-gop / no-temporal-layers / interlace=0 / keyint=250 / min-keyint=23 / scenecut=40 / rc-lookahead=20 / lookahead-slices=8 / bframes=4 / bframe-bias=0 / b-adapt=2 / ref=3 / limit-refs=3 / no-limit-modes / weightp / no-weightb / aq-mode=1 / qg-size=32 / aq-strength=1.00 / cbqpoffs=0 / crqpoffs=0 / rd=3 / psy-rd=2.00 / rdoq-level=0 / psy-rdoq=0.00 / log2-max-poc-lsb=8 / limit-tu=0 / no-rd-refine / signh-i-d-e / deblock=0:0 / sao / no-sao-non-deblock / b-pyramid / cutree / no-intra-refresh / rc=crf / crf=20.0 / qcomp=0.60 / qpmin=0 / qpmax=69 / qpstep=4 / ipratio=1.40 / pbratio=1.30
    Default : Yes
    Forced : No

    Audio 1
    ID : 2
    Format : DTS
    Format/Info : Digital Theater Systems
    Codec ID : A_DTS
    Duration : 2 h 2 min
    Bit rate mode : Constant
    Bit rate : 755 kb/s
    Channel(s) : 6 channels
    Channel layout : C L R Ls Rs LFE
    Sampling rate : 48.0 kHz
    Frame rate : 93.750 FPS (512 SPF)
    Bit depth : 24 bits
    Compression mode : Lossy
    Delay relative to video : 17 s 800 ms
    Stream size : 660 MiB (5%)
    Language : English
    Default : No
    Forced : No

    Audio 2
    ID : 3
    Format : AC-3
    Format/Info : Audio Coding 3
    Commercial name : Dolby Digital
    Codec ID : A_AC3
    Duration : 2 h 2 min
    Bit rate mode : Constant
    Bit rate : 640 kb/s
    Channel(s) : 6 channels
    Channel layout : L R C LFE Ls Rs
    Sampling rate : 48.0 kHz
    Frame rate : 31.250 FPS (1536 SPF)
    Bit depth : 16 bits
    Compression mode : Lossy
    Delay relative to video : 17 s 800 ms
    Stream size : 560 MiB (5%)
    Language : Thai
    Service kind : Complete Main
    Default : Yes
    Forced : Yes

    Text 1
    ID : 4
    Format : VobSub
    Muxing mode : zlib
    Codec ID : S_VOBSUB
    Codec ID/Info : Picture based subtitle format used on DVDs
    Duration : 1 h 53 min
    Bit rate : 7 643 b/s
    Count of elements : 1528
    Stream size : 6.19 MiB (0%)
    Language : English
    Default : No
    Forced : No

    Text 2
    ID : 5
    Format : UTF-8
    Codec ID : S_TEXT/UTF8
    Codec ID/Info : UTF-8 Plain Text
    Duration : 1 h 53 min
    Bit rate : 74 b/s
    Count of elements : 1528
    Stream size : 61.4 KiB (0%)
    Language : English
    Default : No
    Forced : No

    Text 3
    ID : 6
    Format : PGS
    Muxing mode : zlib
    Codec ID : S_HDMV/PGS
    Codec ID/Info : Picture based subtitle format used on BDs/HD-DVDs
    Duration : 1 h 53 min
    Bit rate : 34.9 kb/s
    Count of elements : 3056
    Stream size : 28.2 MiB (0%)
    Language : English
    Default : No
    Forced : No

    Text 4
    ID : 7
    Format : VobSub
    Muxing mode : zlib
    Codec ID : S_VOBSUB
    Codec ID/Info : Picture based subtitle format used on DVDs
    Duration : 1 h 55 min
    Bit rate : 5 788 b/s
    Count of elements : 1178
    Stream size : 4.79 MiB (0%)
    Language : Thai
    Default : No
    Forced : No

    Text 5
    ID : 8
    Format : UTF-8
    Codec ID : S_TEXT/UTF8
    Codec ID/Info : UTF-8 Plain Text
    Duration : 1 h 55 min
    Bit rate : 111 b/s
    Count of elements : 1178
    Stream size : 94.2 KiB (0%)
    Language : Thai
    Default : No
    Forced : No

    Text 6
    ID : 9
    Format : PGS
    Muxing mode : zlib
    Codec ID : S_HDMV/PGS
    Codec ID/Info : Picture based subtitle format used on BDs/HD-DVDs
    Duration : 1 h 55 min
    Bit rate : 27.2 kb/s
    Count of elements : 2356
    Stream size : 22.5 MiB (0%)
    Language : Thai
    Default : Yes
    Forced : Yes





    Star.Trek.2009.4K.UHD.2160p.BDRip.x265.mkv - 10.7 GB
    http://www.mekafile.com/dl.php?f=nE8209bTCQuU
    Star.Trek.Beyond.2016.4K.UHD.2160p.BDRip.mkv - 11.8 GB
    http://www.mekafile.com/dl.php?f=li8ad0bTCQBU
    Star.Trek.Into.Darkness.2013.IMAX.4K.UHD.2160p.BDR ip.x265.mkv - 6.9 GB
    http://www.mekafile.com/dl.php?f=2D2d22bTxkwm

  2. #2
    Senior Member
    Join Date
    Jun 2012
    Posts
    1,145
    Thanks
    0
    Thanked 1 Time in 1 Post
    ขอบคุณ มากครับ

+ Reply to Thread

Thread Information

Users Browsing this Thread

There are currently 1 users browsing this thread. (0 members and 1 guests)

     

Posting Permissions

  • You may not post new threads
  • You may not post replies
  • You may not post attachments
  • You may not edit your posts