+ Reply to Thread
Results 1 to 3 of 3
  1. #1
    Administrators Duckload.us's Avatar
    Join Date
    Dec 2010
    Posts
    106,250
    Thanks
    9
    Thanked 110,187 Times in 51,466 Posts

    Question [ฝรั่ง] Gods of Egypt (2016) [MKV HEVC 4K HDR10] [English : DTS-X / DTS-HD Master Audio 7.1 Ch / DTS 5.1 Ch / HE-AAC 7.1 Ch] [พากย์ไทย : HE-AAC 5.1 Ch] [บรรยาย PGS : English / ไทย]



    Gods of Egypt (2016) [MKV HEVC 4K HDR10]
    [English : DTS-X / DTS-HD Master Audio 7.1 Ch / DTS 5.1 Ch / HE-AAC 7.1 Ch] [พากย์ไทย : HE-AAC 5.1 Ch] [บรรยาย PGS : English / ไทย]

    สร้างจากตำนานปรัมปราของเทพเจ้าแห่งอียิปต์ เทพเจ้า เซท (เจอราร์ด บัตเลอร์) เทพแห่งความมืดมิดและชั่วร้ายได้สร้างวิกฤตการณ์สู่บ ัลลังก์ราชาแห่งลุ่มแม่น้ำไนล์
    จนเกิดความปั่นป่วนไปทั่วแผ่นดินนองไปด้วยเลือด ร้อนถึงมือของเทพเจ้าแห่งพลัง ฮอรัส ที่ส่งตัวแทนเป็นมนุษย์นักรบหนุ่มนามว่า เบค (เบรนตัน ธเวทส์)
    ซึ่งต้องเข้ารับการทดสอบความกล้าหาญและวิญญาณนักรบใน ตัว เพื่อเผชิญหน้ากับกองทัพปีศาจของเทพแห่งความมืด
    หวังส่งร่างและวิญญาณของเซธกลับคืนสู่โลกหลังความตาย ก่อเกิดเป็นสงครามแห่งเวทย์มนตร์และอสุรกาย สั่นสะเทือนทั้งโลกสวรรค์และโลกมนุษย์ยิ่งใหญ่เหนือจ ินตนาการ!!!







    Media Info

    Quote:

    General
    Complete name : Gods of Egypt (2016) 4K [EN DTS-X 7.1 MA HE-AAC 7.1 TH HE-AAC 5.1].mkv
    Format : Matroska
    Format version : Version 4
    File size : 13.0 GiB
    Duration : 2 h 7 min
    Overall bit rate mode : Variable
    Overall bit rate : 14.6 Mb/s
    Movie name : Gods of Egypt (2016) 4K [EN DTS-X 7.1 MA HE-AAC 7.1 TH HE-AAC 5.1]
    Encoded date : UTC 2019-05-09 07:11:42
    Writing application : mkvmerge v30.1.0 ('Forever And More') 64-bit
    Writing library : libebml v1.3.6 + libmatroska v1.4.9

    Video
    ID : 1
    Format : HEVC
    Format/Info : High Efficiency Video Coding
    Commercial name : HDR10
    Format profile : Main [email protected]@High
    Codec ID : V_MPEGH/ISO/HEVC
    Duration : 2 h 7 min
    Bit rate : 9 466 kb/s
    Width : 3 840 pixels
    Height : 2 160 pixels
    Display aspect ratio : 16:9
    Frame rate mode : Constant
    Frame rate : 23.976 (24000/1001) FPS
    Color space : YUV
    Chroma subsampling : 4:2:0 (Type 2)
    Bit depth : 10 bits
    Bits/(Pixel*Frame) : 0.048
    Stream size : 8.40 GiB (65%)
    Default : Yes
    Forced : No
    Color range : Limited
    Color primaries : BT.2020
    Transfer characteristics : PQ
    Matrix coefficients : BT.2020 non-constant
    Mastering display color primar : Display P3
    Mastering display luminance : min: 0.0050 cd/m2, max: 4000 cd/m2

    Audio 1
    ID : 2
    Format : DTS XLL X
    Format/Info : Digital Theater Systems
    Commercial name : DTS-HD Master Audio
    Codec ID : A_DTS
    Duration : 2 h 7 min
    Bit rate mode : Variable
    Bit rate : 4 731 kb/s
    Channel(s) : 8 channels
    Channel(s)_Original : Object Based
    Channel layout : Object Based
    Sampling rate : 48.0 kHz
    Frame rate : 93.750 FPS (512 SPF)
    Bit depth : 24 bits
    Stream size : 4.21 GiB (32%)
    Language : English
    Default : Yes
    Forced : No

    Audio 2
    ID : 3
    Format : AAC LC SBR
    Format/Info : Advanced Audio Codec Low Complexity with Spectral Band Replication
    Commercial name : HE-AAC
    Format settings : Explicit
    Codec ID : A_AAC-2
    Duration : 2 h 7 min
    Bit rate : 210 kb/s
    Channel(s) : 8 channels
    Channel layout : C L R Ls Rs Lb Rb LFE
    Sampling rate : 48.0 kHz
    Frame rate : 23.438 FPS (2048 SPF)
    Compression mode : Lossy
    Delay relative to video : 36 ms
    Stream size : 191 MiB (1%)
    Language : English
    Default : No
    Forced : No

    Audio 3
    ID : 4
    Format : AAC LC SBR
    Format/Info : Advanced Audio Codec Low Complexity with Spectral Band Replication
    Commercial name : HE-AAC
    Format settings : Explicit
    Codec ID : A_AAC-2
    Duration : 2 h 6 min
    Bit rate : 155 kb/s
    Channel(s) : 6 channels
    Channel layout : C L R Ls Rs LFE
    Sampling rate : 48.0 kHz
    Frame rate : 23.438 FPS (2048 SPF)
    Compression mode : Lossy
    Delay relative to video : 1 s 822 ms
    Stream size : 140 MiB (1%)
    Language : Thai
    Default : No
    Forced : No

    Text 1
    ID : 5
    Format : PGS
    Muxing mode : zlib
    Codec ID : S_HDMV/PGS
    Codec ID/Info : Picture based subtitle format used on BDs/HD-DVDs
    Duration : 1 h 55 min
    Bit rate : 27.8 kb/s
    Count of elements : 2446
    Stream size : 23.0 MiB (0%)
    Language : English
    Default : Yes
    Forced : No

    Text 2
    ID : 6
    Format : PGS
    Muxing mode : zlib
    Codec ID : S_HDMV/PGS
    Codec ID/Info : Picture based subtitle format used on BDs/HD-DVDs
    Duration : 2 h 6 min
    Bit rate : 19.7 kb/s
    Count of elements : 2594
    Stream size : 17.8 MiB (0%)
    Language : Thai
    Default : No
    Forced : No

    Menu
    00:00:00.000 : en:Chapter 1
    00:07:08.010 : en:Chapter 2
    00:18:07.544 : en:Chapter 3
    00:23:47.259 : en:Chapter 4
    00:30:11.809 : en:Chapter 5
    00:39:16.520 : en:Chapter 6
    00:46:30.621 : en:Chapter 7
    00:54:46.074 : en:Chapter 8
    01:01:14.128 : en:Chapter 9
    01:09:29.039 : en:Chapter 10
    01:18:03.345 : en:Chapter 11
    01:28:18.251 : en:Chapter 12
    01:36:12.057 : en:Chapter 13
    01:39:14.656 : en:Chapter 14
    01:46:58.328 : en:Chapter 15
    01:52:11.015 : en:Chapter 16


    Download: cornfile
    http://cornfile.com/2z6xl33g4f1z
    Download: mekafile
    http://www.mekafile.com/dl.php?f=yP402cbTP8ba

  2. The Following User Says Thank You to Duckload.us For This Useful Post:

    Wesker_TOT (05-15-2019)

  3. #2
    Senior Member
    Join Date
    Jun 2012
    Posts
    1,189
    Thanks
    0
    Thanked 1 Time in 1 Post
    ขอบคุณครับ

  4. #3
    Senior Member
    Join Date
    Dec 2013
    Posts
    1,759
    Thanks
    3,711
    Thanked 0 Times in 0 Posts
    ขอบคุณครับ...

+ Reply to Thread

Thread Information

Users Browsing this Thread

There are currently 1 users browsing this thread. (0 members and 1 guests)

     

Posting Permissions

  • You may not post new threads
  • You may not post replies
  • You may not post attachments
  • You may not edit your posts