ͧ

Soon...





ѡʴ





ū
* INFO Report !*
General
Unique ID : 194708581547659548463464252023206622866 (0x927B823E4DC42AA610DD958218D8B692)
Complete name : Game.of.Thrones.S08E04.1080p.AMZN.WEB-DL.DDP5.1.H.264-jaideejung007.mkv
Format : Matroska
Format version : Version 4
File size : 4.03 GiB
Duration : 1 h 18 min
Overall bit rate : 7 313 kb/s
Movie name : Game.of.Thrones.S08E04.1080p.AMZN.WEB-DL.DDP5.1.H.264-jaideejung007
Encoded date : UTC 2019-05-09 02:05:17
Writing application : mkvmerge v33.1.0 ('Primrose') 64-bit
Writing library : libebml v1.3.7 + libmatroska v1.5.0

Video
ID : 1
Format : AVC
Format/Info : Advanced Video Codec
Format profile : [email protected]
Format settings : CABAC / 4 Ref Frames
Format settings, CABAC : Yes
Format settings, Reference frames : 4 frames
Codec ID : V_MPEG4/ISO/AVC
Duration : 1 h 18 min
Bit rate mode : Constant
Bit rate : 6 591 kb/s
Nominal bit rate : 10 000 kb/s
Width : 1 920 pixels
Height : 1 080 pixels
Display aspect ratio : 16:9
Frame rate mode : Constant
Frame rate : 23.976 (24000/1001) FPS
Color space : YUV
Chroma subsampling : 4:2:0
Bit depth : 8 bits
Scan type : Progressive
Bits/(Pixel*Frame) : 0.133
Stream size : 3.63 GiB (90%)
Title : Game.of.Thrones.S08E04.1080p.AMZN.WEB-DL.DDP5.1.H.264-jaideejung007
Language : English
Default : Yes
Forced : No
Color range : Limited
Color primaries : BT.709
Transfer characteristics : BT.709
Matrix coefficients : BT.709

Audio
ID : 2
Format : E-AC-3
Format/Info : Enhanced AC-3
Commercial name : Dolby Digital Plus
Codec ID : A_EAC3
Duration : 1 h 18 min
Bit rate mode : Constant
Bit rate : 640 kb/s
Channel(s) : 6 channels
Channel layout : L R C LFE Ls Rs
Sampling rate : 48.0 kHz
Frame rate : 31.250 FPS (1536 SPF)
Compression mode : Lossy
Delay relative to video : 6 ms
Stream size : 361 MiB (9%)
Title : Game.of.Thrones.S08E04.1080p.AMZN.WEB-DL.DDP5.1.H.264-jaideejung007
Language : English
Service kind : Complete Main
Default : Yes
Forced : No

Text 1
ID : 3
Format : VobSub
Codec ID : S_VOBSUB
Codec ID/Info : Picture based subtitle format used on DVDs
Duration : 1 h 18 min
Bit rate : 2 096 b/s
Count of elements : 821
Stream size : 1.18 MiB (0%)
Title : Thai 480p
Language : Thai
Default : No
Forced : No

Text 2
ID : 4
Format : VobSub
Codec ID : S_VOBSUB
Codec ID/Info : Picture based subtitle format used on DVDs
Duration : 1 h 18 min
Bit rate : 4 119 b/s
Count of elements : 821
Stream size : 2.32 MiB (0%)
Title : Thai 720p
Language : Thai
Default : No
Forced : No

Text 3
ID : 5
Format : VobSub
Codec ID : S_VOBSUB
Codec ID/Info : Picture based subtitle format used on DVDs
Duration : 1 h 18 min
Bit rate : 7 382 b/s
Count of elements : 821
Stream size : 4.16 MiB (0%)
Title : Thai 1080p
Language : Thai
Default : Yes
Forced : Yes

Text 4
ID : 6
Format : VobSub
Codec ID : S_VOBSUB
Codec ID/Info : Picture based subtitle format used on DVDs
Duration : 1 h 18 min
Bit rate : 7 368 b/s
Count of elements : 821
Stream size : 4.15 MiB (0%)
Title : Thai 1080p Yellow
Language : Thai
Default : No
Forced : No

Text 5
ID : 7
Format : PGS
Codec ID : S_HDMV/PGS
Codec ID/Info : Picture based subtitle format used on BDs/HD-DVDs
Duration : 1 h 18 min
Bit rate : 29.2 kb/s
Count of elements : 1642
Stream size : 16.4 MiB (0%)
Title : Thai PGS
Language : Thai
Default : No
Forced : No

Text 6
ID : 8
Format : PGS
Codec ID : S_HDMV/PGS
Codec ID/Info : Picture based subtitle format used on BDs/HD-DVDs
Duration : 1 h 18 min
Bit rate : 29.2 kb/s
Count of elements : 1642
Stream size : 16.4 MiB (0%)
Title : Thai PGS OUT
Language : Thai
Default : No
Forced : No

Text 7
ID : 9
Format : UTF-8
Codec ID : S_TEXT/UTF8
Codec ID/Info : UTF-8 Plain Text
Duration : 1 h 18 min
Bit rate : 45 b/s
Count of elements : 872
Stream size : 26.4 KiB (0%)
Title : CC
Language : English
Default : No
Forced : No

Text 8
ID : 10
Format : UTF-8
Codec ID : S_TEXT/UTF8
Codec ID/Info : UTF-8 Plain Text
Duration : 1 h 18 min
Bit rate : 48 b/s
Count of elements : 982
Stream size : 28.1 KiB (0%)
Title : CC SDH
Language : English
Default : No
Forced : No

Menu
00:00:00.000 : en:Ratings
00:00:02.926 : en:Previously On
00:01:12.926 : en:Opening Credits
00:03:06.926 : en:The shields that guarded the realms of men
00:08:52.926 : en:A feast to celebrate
00:12:11.926 : en:A person that men will want to follow
00:17:50.926 : en:Celebrations and confessions
00:22:23.926 : en:The Lady of Storm's End
00:24:22.926 : en:Follow the drinking game rules
00:27:24.926 : en:Swearing to secrecy
00:31:55.926 : en:A plan of action
00:36:05.926 : en:The importance of family
00:38:26.926 : en:The word of a Lannister
00:42:38.926 : en:Unfinished business in King's Landing
00:43:58.926 : en:The North and King's Landing must be allies
00:47:17.926 : en:A friend's farewell
00:50:42.926 : en:A secret can quickly spread
00:52:57.926 : en:The unthinkable happens
00:55:52.926 : en:So much for the breaker of chains
00:57:57.926 : en:Tyrants or Queens
01:04:03.926 : en:What it means to be a good man
01:07:52.926 : en:An opportunity to surrender
01:16:54.926 : en:End Credits
01:18:13.926 : en:Next Time






Ҿҧ ᤻ҡ








ѹѧ
عѢšѹ
º§/٨ѡ jaideejung007



Download: filecondo
http://www.filecondo.com/dl.php?f=j4643e1HoVh6
Download: cornfile
cf Դ LC Ѻ
Download: mekafile
http://www.mekafile.com/dl.php?f=kQ01a1bTOkA1