+ Reply to Thread
Results 1 to 1 of 1
  1. #1
    Administrators Duckload.us's Avatar
    Join Date
    Dec 2010
    Posts
    104,472
    Thanks
    9
    Thanked 107,734 Times in 50,799 Posts

    Question []-We Love (2018) ѡشմ ش [720p] ˹ѧ Ѻ-WEB-DL.H.264.720p. [Master]-[Soundtrack ()]




    We Love



    Rating: 7.6/10 Year: 2018 Genres: Romance Runtime: n/A Language: Japanese Director: Yûichi Satô Writers: Yukimo Hoshimori / Natsuko Takahashi Cast: Shô Hirano / Hayato Isomura / Kentarô ItôPlot:

    Keita, Koyomi, Rin and Yuu are school-mates, friends and neighbours. Yuu likes Rin and Rin likes Yuu, but immaturity, shyness and inexperience stops them from being frank with each other and expressing themselves. They play games instead. Enter Kazuma who may be a cog in the wheel or a road block for the friends. Written by aghaemi

    ͧ
    Թ (Hirano Sho) (Sakurai Hinako) व ͹ѹҵ ԹѺٵҧͺѹ ԴԹպ СͺѺԹͧº͡Ѻ ·ҷӴմ¤ͤ Թ·ӫֹ ӵ꺫Ҵʵ ٻШ ١ǢҴǵʹ
    зѹ˹ ˹ͷ ҫ (Ito Kentaro) Ҫͺٴ͹ѹ Թ֧ͧѡҧ......

    DD

    Format : MPEG-4
    Format profile : Base Media / Version 2
    Codec ID : mp42 (isom/mp42)
    File size : 1.07 GiB
    Duration : 1 h 39 min
    Overall bit rate mode : Variable
    Overall bit rate : 1 547 kb/s
    Encoded date : UTC 2019-05-16 08:23:20
    Tagged date : UTC 2019-05-16 08:23:20
    Writing application : Google
    gsst : 0
    gstd : 5953155

    Video
    ID : 1
    Format : AVC
    Format/Info : Advanced Video Codec
    Format profile : [email protected]
    Format settings : CABAC / 1 Ref Frames
    Format settings, CABAC : Yes
    Format settings, ReFrames : 1 frame
    Codec ID : avc1
    Codec ID/Info : Advanced Video Coding
    Duration : 1 h 39 min
    Bit rate : 1 417 kb/s
    Width : 1 280 pixels
    Height : 720 pixels
    Display aspect ratio : 16:9
    Frame rate mode : Constant
    Frame rate : 29.970 (30000/1001) FPS
    Color space : YUV
    Chroma subsampling : 4:2:0
    Bit depth : 8 bits
    Scan type : Progressive
    Bits/(Pixel*Frame) : 0.051
    Stream size : 1 005 MiB (92%)
    Title : ISO Media file produced by Google Inc. Created on: 05/16/2019.
    Writing library : x264 core 155 r2901 7d0ff22
    Encoded date : UTC 2019-05-16 08:23:20
    Tagged date : UTC 2019-05-16 08:23:20
    Color range : Limited
    Color primaries : BT.709
    Transfer characteristics : BT.709
    Matrix coefficients : BT.709

    Audio
    ID : 2
    Format : AAC
    Format/Info : Advanced Audio Codec
    Format profile : LC
    Codec ID : mp4a-40-2
    Duration : 1 h 39 min
    Bit rate mode : Variable
    Bit rate : 128 kb/s
    Channel(s) : 2 channels
    Channel positions : Front: L R
    Sampling rate : 44.1 kHz
    Frame rate : 43.066 FPS (1024 SPF)
    Compression mode : Lossy
    Stream size : 90.8 MiB (8%)
    Title : ISO Media file produced by Google Inc. Created on: 05/16/2019.
    Encoded date : UTC 2019-05-16 08:23:20
    Tagged date : UTC 2019-05-16 08:23:20





    Download: cornfile
    http://cornfile.com/5te1klv1wq4b
    Download: mekafile
    http://www.mekafile.com/dl.php?f=3H6169bU6EZh

  2. The Following User Says Thank You to Duckload.us For This Useful Post:

    JOMMY_2 (05-17-2019)

Thread Information

Users Browsing this Thread

There are currently 1 users browsing this thread. (0 members and 1 guests)

     

Posting Permissions

  • You may not post new threads
  • You may not post replies
  • You may not post attachments
  • You may not edit your posts