+ Reply to Thread
Results 1 to 1 of 1
  1. #1
    Administrators Duckload.us's Avatar
    Join Date
    Dec 2010
    Posts
    103,441
    Thanks
    9
    Thanked 106,332 Times in 50,348 Posts

    Talking [ฝรั่ง]-[**ปิดตำนาน**][*สำหรับนักสะสม*] Game of Thrones (2019) Season 8 Episode 6 Finale [1080p AMZN] [เสียงอังกฤษ 5.1] [บรรยายไทย + อังกฤษ] [ซับไทยแปลคุณภาพจากท่านสุนัขป่าโลกันตร์] [ซับ PGS, IDX, SRT]







    เรื่องย่อ

    เรื่องย่อ
    มหาศึกชิงบัลลังก์ (อังกฤษ: Game of Thrones) เป็นภาพยนตร์ชุดทางโทรทัศน์แนวแฟนตาซีย้อนยุคของสถาน ีโทรทัศน์เอชบีโอ สร้างสรรค์โดยเดวิด เบนิออฟฟ์ และดี. บี. ไวส์ ดัดแปลงจากหนังสือเล่มที่หนึ่งของชุดหนังสือนิยายขาย ดีของจอร์จ อาร์. อาร์. มาร์ติน ชุด มหาศึกชิงบัลลังก์ เรื่อง เกมล่าบัลลังก์ ฉายครั้งแรกในสหรัฐอเมริกา 17 เมษายน 2554 ภาพยนตร์ชุดนี้ได้รับเสียงตอบรับอย่างดีมาก มีผู้ติดตามเป็นจำนวนมาก และได้รับการอนุมัติให้ทำฤดูกาลที่ 2 ต่อจากฤดูกาลแรก ในวันที่ 19 เมษายน 2554 สองวันหลังจากฉายตอนแรก





    นักแสดงนำ





    ข้อมูลซีรีส์
    *ดู INFO Report คลิ๊ก!*
    General
    Unique ID : 55500276161332757135324891795520499495 (0x29C0F6E17B796DF14AA95936274C2F27)
    Complete name : Game.of.Thrones.S08E06.1080p.AMZN.WEB-DL.DDP5.1.H.264-jaideejung007.mkv
    Format : Matroska
    Format version : Version 4
    File size : 4.40 GiB
    Duration : 1 h 19 min
    Overall bit rate : 7 927 kb/s
    Movie name : Game.of.Thrones.S08E06.1080p.AMZN.WEB-DL.DDP5.1.H.264-jaideejung007
    Encoded date : UTC 2019-05-21 05:44:38
    Writing application : mkvmerge v34.0.0 ('Sight and Seen') 64-bit
    Writing library : libebml v1.3.7 + libmatroska v1.5.0

    Video
    ID : 1
    Format : AVC
    Format/Info : Advanced Video Codec
    Format profile : [email protected]
    Format settings : CABAC / 4 Ref Frames
    Format settings, CABAC : Yes
    Format settings, Reference frames : 4 frames
    Codec ID : V_MPEG4/ISO/AVC
    Duration : 1 h 19 min
    Bit rate mode : Constant
    Bit rate : 7 232 kb/s
    Nominal bit rate : 10 000 kb/s
    Width : 1 920 pixels
    Height : 1 080 pixels
    Display aspect ratio : 16:9
    Frame rate mode : Constant
    Frame rate : 23.976 (24000/1001) FPS
    Color space : YUV
    Chroma subsampling : 4:2:0
    Bit depth : 8 bits
    Scan type : Progressive
    Bits/(Pixel*Frame) : 0.145
    Stream size : 4.02 GiB (91%)
    Title : Game.of.Thrones.S08E06.1080p.AMZN.WEB-DL.DDP5.1.H.264-jaideejung007
    Language : English
    Default : Yes
    Forced : No
    Color range : Limited
    Color primaries : BT.709
    Transfer characteristics : BT.709
    Matrix coefficients : BT.709

    Audio
    ID : 2
    Format : E-AC-3
    Format/Info : Enhanced AC-3
    Commercial name : Dolby Digital Plus
    Codec ID : A_EAC3
    Duration : 1 h 19 min
    Bit rate mode : Constant
    Bit rate : 640 kb/s
    Channel(s) : 6 channels
    Channel layout : L R C LFE Ls Rs
    Sampling rate : 48.0 kHz
    Frame rate : 31.250 FPS (1536 SPF)
    Compression mode : Lossy
    Delay relative to video : 2 ms
    Stream size : 364 MiB (8%)
    Title : Game.of.Thrones.S08E06.1080p.AMZN.WEB-DL.DDP5.1.H.264-jaideejung007
    Language : English
    Service kind : Complete Main
    Default : Yes
    Forced : No

    Text #1
    ID : 3
    Format : VobSub
    Codec ID : S_VOBSUB
    Codec ID/Info : Picture based subtitle format used on DVDs
    Duration : 1 h 19 min
    Bit rate : 1 383 b/s
    Count of elements : 541
    Stream size : 804 KiB (0%)
    Title : Thai 480p
    Language : Thai
    Default : No
    Forced : No

    Text #2
    ID : 4
    Format : VobSub
    Codec ID : S_VOBSUB
    Codec ID/Info : Picture based subtitle format used on DVDs
    Duration : 1 h 19 min
    Bit rate : 2 718 b/s
    Count of elements : 541
    Stream size : 1.54 MiB (0%)
    Title : Thai 720p
    Language : Thai
    Default : No
    Forced : No

    Text #3
    ID : 5
    Format : VobSub
    Codec ID : S_VOBSUB
    Codec ID/Info : Picture based subtitle format used on DVDs
    Duration : 1 h 19 min
    Bit rate : 4 877 b/s
    Count of elements : 541
    Stream size : 2.77 MiB (0%)
    Title : Thai 1080p
    Language : Thai
    Default : Yes
    Forced : Yes

    Text #4
    ID : 6
    Format : VobSub
    Codec ID : S_VOBSUB
    Codec ID/Info : Picture based subtitle format used on DVDs
    Duration : 1 h 19 min
    Bit rate : 4 869 b/s
    Count of elements : 541
    Stream size : 2.76 MiB (0%)
    Title : Thai 1080p Yellow
    Language : Thai
    Default : No
    Forced : No

    Text #5
    ID : 7
    Format : PGS
    Codec ID : S_HDMV/PGS
    Codec ID/Info : Picture based subtitle format used on BDs/HD-DVDs
    Duration : 1 h 19 min
    Bit rate : 19.4 kb/s
    Count of elements : 1100
    Stream size : 11.0 MiB (0%)
    Title : Thai PGS
    Language : Thai
    Default : No
    Forced : No

    Text #6
    ID : 8
    Format : PGS
    Codec ID : S_HDMV/PGS
    Codec ID/Info : Picture based subtitle format used on BDs/HD-DVDs
    Duration : 1 h 19 min
    Bit rate : 19.3 kb/s
    Count of elements : 1082
    Stream size : 10.9 MiB (0%)
    Title : Thai PGS OUT
    Language : Thai
    Default : No
    Forced : No

    Text #7
    ID : 9
    Format : UTF-8
    Codec ID : S_TEXT/UTF8
    Codec ID/Info : UTF-8 Plain Text
    Duration : 1 h 15 min
    Bit rate : 27 b/s
    Count of elements : 517
    Stream size : 15.1 KiB (0%)
    Title : CC
    Language : English
    Default : No
    Forced : No

    Text #8
    ID : 10
    Format : UTF-8
    Codec ID : S_TEXT/UTF8
    Codec ID/Info : UTF-8 Plain Text
    Duration : 1 h 17 min
    Bit rate : 29 b/s
    Count of elements : 629
    Stream size : 16.7 KiB (0%)
    Title : CC SDH
    Language : English
    Default : No
    Forced : No

    Menu
    00:00:00.000 : en:Ratings
    00:00:03.858 : en:Previously On
    00:00:57.858 : en:Opening Credits
    00:02:56.858 : en:What remains of King's Landing
    00:05:52.858 : en:Following the queen's orders
    00:07:28.858 : en:The last of House Lannister
    00:11:53.858 : en:Breaking the wheel
    00:21:13.858 : en:Love is the death of duty
    00:30:18.858 : en:Building a new world together
    00:42:44.858 : enetermining what's best for the kingdom
    00:56:16.858 : en:Everyone is where they're supposed to be
    01:03:42.858 : en:Honoring a legacy
    01:05:45.858 : en:A song of ice and fire
    01:11:15.858 : en:And now my watch begins
    01:12:30.858 : en:The last of house Stark
    01:18:08.858 : en:End Credits






    ภาพตัวอย่าง แคปจากตัวไฟล์ซีรีส์





    ตัวอย่างภาพยนตร์






    เล่าสู่กันฟัง
    บรรยายไทยโดย สุนัขป่าโลกันตร์ / HBO Thai
    เรียบเรียง/พิสูจน์อักษรโดย jaideejung007




    Download: filecondo
    http://www.filecondo.com/dl.php?f=g8ce451Ht0fN
    Download: mekafile
    http://www.mekafile.com/dl.php?f=GXd9e5bUh1zy
    Download: cornfile
    cf ติด LC ครับ

  2. The Following User Says Thank You to Duckload.us For This Useful Post:

    mahns8f2u (05-21-2019)

+ Reply to Thread

Thread Information

Users Browsing this Thread

There are currently 2 users browsing this thread. (1 members and 1 guests)

Posting Permissions

  • You may not post new threads
  • You may not post replies
  • You may not post attachments
  • You may not edit your posts