จุดเริ่มต้นจากมิตรภาพเหลือเชื่อระหว่างไวกิ้งหนุ่มก ับมังกรไนท์ ฟิวรี ที่น่าสะพรึงกลัว ได้กลายเป็นไตรภาคอีพิคที่บอกเล่าเรื่องราวชีวิตของพ วกเขา ในตำนานบทใหม่นี้ ในที่สุด ฮิคคัพและทูธเลสก็จะได้ค้นพบโชคชะตาที่แท้จริงของพวก เขาเสียที นั่นคือการเป็นหัวหน้าหมู่บ้านในฐานะผู้นำของเหล่าเบ ิร์ค เคียงข้างแอสทริด และการเป็นมังกรผู้นำฝูง ในขณะที่ทั้งคู่กำลังจะขึ้นครองอำนาจ ภัยคุกคามที่ร้ายกาจที่สุดเท่าที่พวกเขาเคยเผชิญ รวมถึงการปรากฏตัวของไนท์ ฟิวรีเพศเมีย จะทดสอบสายสัมพันธ์มิตรภาพระหว่างพวกเขาอย่างที่ไม่เ คยปรากฏมาก่อน
Format : MPEG-4
Format profile : Base Media / Version 2
Codec ID : mp42 (isom/iso2/avc1/mp41)
File size : 14.4 GiB
Duration : 1 h 44 min
Overall bit rate mode : Variable
Overall bit rate : 19.8 Mb/s
Encoded date : UTC 2019-05-21 13:53:56
Tagged date : UTC 2019-05-21 13:53:56
Writing application : HandBrake 1.1.2 2018090500

Video
ID : 1
Format : AVC
Format/Info : Advanced Video Codec
Format profile : [email protected]
Format settings : CABAC / 1 Ref Frames
Format settings, CABAC : Yes
Format settings, ReFrames : 1 frame
Codec ID : avc1
Codec ID/Info : Advanced Video Coding
Duration : 1 h 44 min
Bit rate : 15.0 Mb/s
Width : 3 840 pixels
Height : 1 634 pixels
Display aspect ratio : 2.35:1
Frame rate mode : Variable
Frame rate : 23.976 (24000/1001) FPS
Minimum frame rate : 23.974 FPS
Maximum frame rate : 23.981 FPS
Color space : YUV
Chroma subsampling : 4:2:0
Bit depth : 8 bits
Scan type : Progressive
Bits/(Pixel*Frame) : 0.100
Stream size : 10.7 GiB (74%)
Writing library : x264 core 155 r2901 7d0ff22
Encoding settings : cabac=1 / ref=1 / deblock=1:1:1 / analyse=0x3:0x113 / me=hex / subme=7 / psy=1 / psy_rd=0.40:0.00 / mixed_ref=0 / me_range=16 / chroma_me=1 / trellis=1 / 8x8dct=1 / cqm=0 / deadzone=21,11 / fast_pskip=1 / chroma_qp_offset=-2 / threads=12 / lookahead_threads=2 / sliced_threads=0 / nr=0 / decimate=1 / interlaced=0 / bluray_compat=0 / constrained_intra=0 / bframes=0 / weightp=2 / keyint=240 / keyint_min=24 / scenecut=40 / intra_refresh=0 / rc_lookahead=40 / rc=abr / mbtree=1 / bitrate=15000 / ratetol=1.0 / qcomp=0.60 / qpmin=0 / qpmax=69 / qpstep=4 / vbv_maxrate=62500 / vbv_bufsize=78125 / nal_hrd=none / filler=0 / ip_ratio=1.40 / aq=1:0.60
Encoded date : UTC 2019-05-21 13:53:56
Tagged date : UTC 2019-05-21 13:53:56
Color range : Limited
Color primaries : BT.709
Transfer characteristics : BT.709
Matrix coefficients : BT.709
Codec configuration box : avcC

Audio #1
ID : 2
Format : AAC LC
Format/Info : Advanced Audio Codec Low Complexity
Codec ID : mp4a-40-2
Duration : 1 h 44 min
Bit rate mode : Variable
Bit rate : 192 kb/s
Channel(s) : 2 channels
Channel layout : L R
Sampling rate : 48.0 kHz
Frame rate : 46.875 FPS (1024 SPF)
Compression mode : Lossy
Stream size : 143 MiB (1%)
Title : Stereo / Stereo
Language : Thai
Default : Yes
Alternate group : 1
Encoded date : UTC 2019-05-21 13:53:56
Tagged date : UTC 2019-05-21 13:53:56

Audio #2
ID : 3
Format : AAC LC
Format/Info : Advanced Audio Codec Low Complexity
Codec ID : mp4a-40-2
Duration : 1 h 44 min
Bit rate mode : Variable
Bit rate : 448 kb/s
Channel(s) : 6 channels
Channel layout : C L R Ls Rs LFE
Sampling rate : 48.0 kHz
Frame rate : 46.875 FPS (1024 SPF)
Compression mode : Lossy
Stream size : 333 MiB (2%)
Title : Surround / Surround
Language : English
Default : No
Alternate group : 1
Encoded date : UTC 2019-05-21 13:53:56
Tagged date : UTC 2019-05-21 13:53:56
Fallback From : 4

Audio #3
ID : 4
Format : AC-3
Format/Info : Audio Coding 3
Commercial name : Dolby Digital
Codec ID : ac-3
Duration : 1 h 44 min
Bit rate mode : Constant
Bit rate : 448 kb/s
Channel(s) : 6 channels
Channel layout : L R C LFE Ls Rs
Sampling rate : 48.0 kHz
Frame rate : 31.250 FPS (1536 SPF)
Bit depth : 16 bits
Compression mode : Lossy
Stream size : 334 MiB (2%)
Title : Surround / Surround
Language : English
Service kind : Complete Main
Default : No
Alternate group : 1
Encoded date : UTC 2019-05-21 13:53:56
Tagged date : UTC 2019-05-21 13:53:56
Fallback To : 3

Audio #4
ID : 5
Format : DTS XLL
Format/Info : Digital Theater Systems
Commercial name : DTS-HD Master Audio
Codec ID : mp4a-A9
Duration : 1 h 44 min
Bit rate mode : Variable
Bit rate : 4 043 kb/s
Channel(s) : 8 channels
Channel layout : C L R LFE Lb Rb Lss Rss
Sampling rate : 48.0 kHz
Frame rate : 93.750 FPS (512 SPF)
Bit depth : 24 bits
Compression mode : Lossless
Stream size : 2.94 GiB (20%)
Title : Surround / Surround
Default : No
Alternate group : 1
Encoded date : UTC 2019-05-21 13:53:56
Tagged date : UTC 2019-05-21 13:53:56

Text #1
ID : 6
Format : VobSub
Codec ID : mp4s-E0
Codec ID/Info : The same subtitle format used on DVDs
Duration : 1 h 44 min
Bit rate mode : Variable
Bit rate : 7 047 b/s
Stream size : 5.24 MiB (0%)
Language : Thai
Default : Yes
Forced : No
Alternate group : 3
Encoded date : UTC 2019-05-21 13:53:56
Tagged date : UTC 2019-05-21 13:53:56

Text #2
ID : 7
Format : VobSub
Codec ID : mp4s-E0
Codec ID/Info : The same subtitle format used on DVDs
Duration : 1 h 33 min
Bit rate mode : Variable
Bit rate : 9 261 b/s
Stream size : 6.22 MiB (0%)
Language : English
Default : No
Forced : No
Alternate group : 3
Encoded date : UTC 2019-05-21 13:53:56
Tagged date : UTC 2019-05-21 13:53:56



Download: cornfile
http://cornfile.com/y5i769u2t8od
Download: mekafile
http://www.mekafile.com/dl.php?f=pm7e56bUoVqi