+ Reply to Thread
Results 1 to 5 of 5
  1. #1
    Administrators Duckload.us's Avatar
    Join Date
    Dec 2010
    Posts
    104,396
    Thanks
    9
    Thanked 107,600 Times in 50,750 Posts

    Question (ฝรั่ง.ใหม่.พากย์ไทยมาสเตอร์)-The Limehouse Golem (2016) ฆาตกรรม ซ่อนฆาตกร-(Super HQ)-[BluRay 1080p.x264] [Sound Eng DTS 5.1/Thai AC3 5.1:MASTER.Modifide][SUB:Eng*SRT*]



    *** The Limehouse Golem (2016) ฆาตกรรม ซ่อนฆาตกร ***

    • เพิ่งผลิตออกจำหน่าย
    • ไลมเฮาส์เป็นเขตยากจนที่สุดของลอนดอน :IMDb:6.3/ 10
    • โกเลมคืออสุรกายที่ปลุกเสกจากโคลนตามตำนานของยิว
    • หนังซับซ้อนทีเดียว โดยมีฉากหลังเป็นไลมเฮาส์และโรงละครแบบวิคตอเรียของแ ดน ลีโน ได้เห็น
    คนชั้นต่ำ ยิว ไอริช ซ่อง ร้านฝิ่น ห้องสมุด และตำรวจ ใครคือโกเลม จบได้ดีมาก

    ••• ไฟล์ 1080p คุณภาพสูง! •••
    ••• บรรยาย:อังกฤษ SRT ! •••
    (ซับ SRT สามารถเปลี่ยนแปลงอักษรบรรยายได้ตามที่ต้องการ สี/ขนาด/ตำแหน่ง/ลักษณะ-และอี่นๆ ซึ่งซับโดยทั่วไปทำไม่ได้เช่นpgs-vob sub ที่มาจาก DVDหรือ Bluray)
    เสียงไทย From Master.


    The Limehouse Golem (2016)
    1h 49min | Crime, Mystery, Thriller | 1 September 2017 (UK)
    Director: Juan Carlos Medina
    Writers: Jane Goldman (screenplay), Peter Ackroyd (based on the novel by)
    Stars: Douglas Booth, Olivia Cooke, Sam Reid

    The Limehouse Golem(เดอะ ไลม์เฮ้าส์ กอเลม) หนังทริลเลอร์-สืบสวน ดัดแปลงจากนิยายขายดีปี1994 ของ ปีเตอร์ แอ๊ครอยด์ ว่าด้วยเรื่องราวของนักสืบ จอห์น คิลแดร์ ผู้พยายามไขคดีฆาตกรรมต่อเนื่องสุดสยองที่เขต ไลม์เฮ้าส์ ริมแม่น้ำเธมส์ ของกรุงลอนดอนในช่วงศตวรรษที่19


    Format : Matroska
    Format version : Version 4
    File size : 4.34 GiB
    Duration : 1 h 48 min
    Overall bit rate : 5 716 kb/s
    Movie name : The.Limehouse.Golem.2016.1080p.bluray-[Super HQ]

    Video
    ID : 1
    Format : AVC
    Format/Info : Advanced Video Codec
    Format profile : [email protected]
    Format settings : 1 Ref Frames
    Format settings, CABAC : No
    Format settings, ReFrames : 1 frame
    Format settings, GOP : M=1, N=12
    Codec ID : V_MPEG4/ISO/AVC
    Duration : 1 h 48 min
    Bit rate : 3 568 kb/s
    Width : 1 920 pixels
    Height : 1 080 pixels
    Display aspect ratio : 16:9
    Frame rate mode : Constant
    Frame rate : 29.970 (29970/1000) FPS
    Color space : YUV
    Chroma subsampling : 4:2:0
    Bit depth : 8 bits
    Scan type : Progressive
    Bits/(Pixel*Frame) : 0.057
    Stream size : 2.71 GiB (62%)
    Language : English
    Default : Yes
    Forced : No

    Audio #1
    ID : 2
    Format : AC-3
    Format/Info : Audio Coding 3
    Commercial name : Dolby Digital
    Codec ID : A_AC3
    Duration : 1 h 48 min
    Bit rate mode : Constant
    Bit rate : 160 kb/s
    Channel(s) : 6 channels
    Channel layout : L R C LFE Ls Rs
    Sampling rate : 44.1 kHz
    Frame rate : 28.711 FPS (1536 SPF)
    Bit depth : 16 bits
    Compression mode : Lossy
    Stream size : 124 MiB (3%)
    Title : 5.1 AC3-160k 124m
    Language : Thai
    Service kind : Complete Main
    Default : Yes
    Forced : No

    Audio #2
    ID : 3
    Format : DTS
    Format/Info : Digital Theater Systems
    Codec ID : A_DTS
    Duration : 1 h 48 min
    Bit rate mode : Constant
    Bit rate : 1 984 kb/s
    Channel(s) : 6 channels
    Channel layout : C L R Ls Rs LFE
    Sampling rate : 24.0 kHz
    Frame rate : 23.438 FPS (1024 SPF)
    Bit depth : 16 bits
    Compression mode : Lossy
    Stream size : 1.51 GiB (35%)
    Title : DTS 5.1-24000-1.5g
    Language : English
    Default : No
    Forced : No

    Text #1
    ID : 4
    Format : UTF-8
    Codec ID : S_TEXT/UTF8
    Codec ID/Info : UTF-8 Plain Text
    Duration : 1 h 41 min
    Bit rate : 71 b/s
    Count of elements : 1254
    Stream size : 53.1 KiB (0%)
    Title : SRT
    Language : English
    Default : Yes
    Forced : No

    Text #2
    ID : 5
    Format : UTF-8
    Codec ID : S_TEXT/UTF8
    Codec ID/Info : UTF-8 Plain Text
    Duration : 1 h 47 min
    Bit rate : 72 b/s
    Count of elements : 1865
    Stream size : 57.5 KiB (0%)
    Title : SRT-Hearing Impaired=ผู้บกพร่องทางเสียง
    Language : English
    Default : No
    Forced : No






    Download: cornfile
    http://cornfile.com/cev3j7hxnk8a
    Download: mekafile
    http://www.mekafile.com/dl.php?f=Rha809bVstg4

  2. The Following 5 Users Say Thank You to Duckload.us For This Useful Post:

    apichartdear (06-19-2019), kappa (06-27-2019), noi54 (06-22-2019), smakha (06-25-2019), Wesker_TOT (06-20-2019)

  3. #2
    Senior Member
    Join Date
    Dec 2013
    Posts
    1,665
    Thanks
    3,621
    Thanked 0 Times in 0 Posts
    ขอบคุณครับ...

  4. #3
    Senior Member
    Join Date
    Jul 2012
    Posts
    6,045
    Thanks
    0
    Thanked 0 Times in 0 Posts
    ขอบคุณมากจ้า

  5. #4
    Senior Member
    Join Date
    Dec 2013
    Posts
    256
    Thanks
    177
    Thanked 0 Times in 0 Posts
    ขอบคุณครับ

  6. #5
    Senior Member
    Join Date
    Jun 2014
    Posts
    637
    Thanks
    0
    Thanked 0 Times in 0 Posts
    ขอบคุณครับ

+ Reply to Thread

Thread Information

Users Browsing this Thread

There are currently 1 users browsing this thread. (0 members and 1 guests)

     

Posting Permissions

  • You may not post new threads
  • You may not post replies
  • You may not post attachments
  • You may not edit your posts