+ Reply to Thread
Results 1 to 3 of 3
  1. #1
    Administrators Duckload.us's Avatar
    Join Date
    Dec 2010
    Posts
    104,472
    Thanks
    9
    Thanked 107,734 Times in 50,799 Posts

    Question (ฝรั่ง.ใหม่ร้อนๆ!.พากย์ไทยมาสเตอร์)-Blind (2017) เล่ห์รักบอด Stars:Demi Moore-[BluRay. 1080p.mkv][Sound:Eng DTS 5.1/Thai AC3 5.1:MASTER.Modifide][SUB:Eng*SRT]



    *** Black Water [2018] คู่มหาวินาศ ดิ่งเด็ดขั่วนรก ***

    •• เพิ่งผลิตออกจำหน่าย ••
    “Blind” เป็นหนังที่ใช้เวลาในการสร้างนานถึง 12 ปีเลยทีเดียว
    หนังได้ “เดมี มัวร์” อดีตนักแสดงสาวชื่อดังที่แฟนหนังยุค 80-90 รู้จักกันดี มารับบทเป็น “ซูซาน”
    “Blind” จะเป็นหนังเรื่องแรกในรอบ 10 ปีที่เธอรับบทเป็นตัวละครเอก นับจากรับบทนำเป็นครั้งสุดท้ายใน “Flawless” เมื่อปี 2008
    ••• ไฟล์ 1080p คุณภาพสูง! •••
    ••• บรรยาย:อังกฤษ SRT ! •••
    (ซับ SRT สามารถเปลี่ยนแปลงอักษรบรรยายได้ตามที่ต้องการ สี/ขนาด/ตำแหน่ง/ลักษณะ-และอี่นๆ ซึ่งซับโดยทั่วไปทำไม่ได้เช่นpgs-vob sub ที่มาจาก DVDหรือ Bluray)
    เสียงไทย From Master.


    Blind (2017)
    R | 1h 38min | Drama, Romance | 24 August 2017 (Kuwait)
    Director: Michael Mailer
    Writers: John Buffalo Mailer, Diane Fisher (story by)
    Stars: Alec Baldwin, Demi Moore, Dylan McDermott

    ซูซาน (เดมี่ มัวร์) และ มาร์ค (ดีแลน แม็คเดอมอตต์) เป็นคู่สามีภรรยาที่เหมือนจะน่าอิจฉาในสายตาใคร ๆ ทั้งที่ความจริงแล้วชีวิตรักของทั้งคู่ไม่ได้สวยหรูข นาดนั้น ก่อนที่วันหนึ่งมาร์คจะถูกจับกุมด้วยความผิดหลายข้อห าและต้องเข้าคุก ซูซาน เองแม้จะไม่มีส่วนรู้เห็นด้วยแต่ก็โดนลูกหลงถูกจับด้ วย อย่างไรก็ตามศาลยังเมตตา ตัดสินให้เธอแค่ต้องทำงานรับใช้สังคมด้วยการช่วยเหลื อ บิล โอคแลนด์ (อเล็ค บอลด์วิน) อดีตนักเขียนซึ่งประสบอุบัติเหตุจนตาบอด ด้วยการอ่านหนังสือให้เขาฟัง จากความสัมพันธ์ที่ดูเหมือนไม่มีอะไรเกินเลย แต่เมื่อใกล้ชิดกันบ่อยเข้า ซูซานและบิลก็เริ่มมีใจให้กันมากขึ้น ทุกอย่างผ่านไปด้วยดีจนกระทั่งมาร์ครู้เรื่องเข้า

    Format : Matroska
    Format version : Version 4
    File size : 3.93 GiB
    Duration : 1 h 45 min
    Overall bit rate : 5 336 kb/s
    Movie name : Blind.2017.1080p.BluRay.x264-[Super HQ]

    Video
    ID : 1
    Format : AVC
    Format/Info : Advanced Video Codec
    Format profile : [email protected]
    Format settings : CABAC / 4 Ref Frames
    Format settings, CABAC : Yes
    Format settings, Reference : 4 frames
    Codec ID : V_MPEG4/ISO/AVC
    Duration : 1 h 45 min
    Bit rate : 2 050 kb/s
    Width : 1 920 pixels
    Height : 800 pixels
    Display aspect ratio : 2.40:1
    Frame rate mode : Constant
    Frame rate : 23.976 (24000/1001) FPS
    Color space : YUV
    Chroma subsampling : 4:2:0
    Bit depth : 8 bits
    Scan type : Progressive
    Bits/(Pixel*Frame) : 0.056
    Stream size : 1.51 GiB (38%)
    Writing library : x264 core 148
    Language : English
    Default : Yes
    Forced : No

    Audio #1
    ID : 2
    Format : AC-3
    Format/Info : Audio Coding 3
    Commercial name : Dolby Digital
    Codec ID : A_AC3
    Duration : 1 h 45 min
    Bit rate mode : Constant
    Bit rate : 640 kb/s
    Channel(s) : 6 channels
    Channel layout : L R C LFE Ls Rs
    Sampling rate : 44.1 kHz
    Frame rate : 28.711 FPS (1536 SPF)
    Bit depth : 16 bits
    Compression mode : Lossy
    Stream size : 483 MiB (12%)
    Title : 5.1 AC3-Thai 640k 483m
    Language : Thai
    Service kind : Complete Main
    Default : Yes
    Forced : No

    Audio #2
    ID : 3
    Format : DTS
    Format/Info : Digital Theater Systems
    Codec ID : A_DTS
    Duration : 1 h 45 min
    Bit rate mode : Constant
    Bit rate : 2 646 kb/s
    Channel(s) : 6 channels
    Channel layout : C L R Ls Rs LFE
    Sampling rate : 32.0 kHz
    Frame rate : 31.250 FPS (1024 SPF)
    Bit depth : 16 bits
    Compression mode : Lossy
    Stream size : 1.95 GiB (50%)
    Title : dts 5.1-Eng 32000-1.95g
    Language : English
    Default : No
    Forced : No

    Text
    ID : 4
    Format : UTF-8
    Codec ID : S_TEXT/UTF8
    Codec ID/Info : UTF-8 Plain Text
    Duration : 1 h 36 min
    Bit rate : 66 b/s
    Count of elements : 1250
    Stream size : 46.8 KiB (0%)
    Title : SRT
    Language : English
    Default : Yes
    Forced : No





    Download: cornfile
    http://cornfile.com/1ixj5qq49pg8
    Download: mekafile
    http://www.mekafile.com/dl.php?f=ZBf355bVxVjc

  2. The Following 4 Users Say Thank You to Duckload.us For This Useful Post:

    apichartdear (06-23-2019), noi54 (06-22-2019), sawara (06-21-2019), smakha (06-24-2019)

  3. #2
    Senior Member
    Join Date
    Dec 2013
    Posts
    257
    Thanks
    178
    Thanked 0 Times in 0 Posts
    ขอบคุณครับ

  4. #3
    Senior Member
    Join Date
    Jun 2014
    Posts
    684
    Thanks
    0
    Thanked 0 Times in 0 Posts
    ขอบคุณครับ

+ Reply to Thread

Thread Information

Users Browsing this Thread

There are currently 1 users browsing this thread. (0 members and 1 guests)

     

Posting Permissions

  • You may not post new threads
  • You may not post replies
  • You may not post attachments
  • You may not edit your posts