+ ตอบกลับกระทู้
สรุปผลการค้นหา 1 ถึง 4 จากทั้งหมด 4
  1. #1
    Administrators รูปส่วนตัว Duckload.us
    สมัครเมื่อ
    Dec 2010
    โพสต์
    151,649
    Thanks
    7
    Thanked 158,661 Times in 69,352 Posts

    Lightbulb [ฝรั่ง]-Kung Fu Panda 4 (2024) [1080p WEB-DL] [เสียง: ไทย DD 5.1/อังกฤษ DD+ Atmos 5.1] [Sub: ไทย/อังกฤษ SRT]-WEB-DL.H.264.1080p. [Master]-[พากย์ไทย บรรยายไทย]



    หลังจากการผจญภัยท้ามฤตยูเพื่อปราบวายร้ายระดับโลกมา ถึงสามครั้งสามคราด้วยความกล้าหาญที่หาตัวจับยากและท ักษะศิลปะการต่อสู้สุดบ้าคลั่งของเขา โป นักรบมังกร (แจ็ค แบล็ค) ก็ถูกชะตากรรมลิขิตให้พักผ่อนเสียที หรือถ้าจะพูดให้เฉพาะเจาะจงกว่านั้น เขาได้รับการทาบทามให้เป็นผู้นำทางจิตวิญญาณแห่งหุบเ ขาสันติภาพ ซึ่งทำให้เกิดปัญหาที่ชัดเจนหลายประการด้วยกัน ข้อแรก โปรู้เรื่องเกี่ยวกับการเป็นผู้นำทางจิตวิญญาณมากพอ ๆ กับที่เขารู้เกี่ยวกับวิถีการลดน้ำหนักด้วยการกินแบบ มนุษย์ยุคหิน และข้อสอง เขาต้องตามหาและฝึกฝนนักรบมังกรคนใหม่ให้ไวก่อนที่เข าจะเข้ารับตำแหน่งใหม่ที่สูงส่งของเขาได้

    ซ้ำร้ายกว่านั้น เพิ่งมีผู้พบเห็น กิ้งก่าแปลงกาย (วิโอลา เดวิส) วายร้ายจอมเจ้าเล่ห์และทรงพลัง กิ้งก่าจิ๋วที่สามารถเปลี่ยนร่างเป็นสัตว์ชนิดไหนก็ไ ด้ ไม่ว่าจะตัวใหญ่บึ๊กหรือเล็กกระจิ๋วหลิวก็ตาม คาเมเลียนได้ใช้ดวงตาเล็กจิ๋วที่โลภมากของเธอเล็งไปท ี่ไม้เท้าแห่งปัญญาของโป ซึ่งจะทำให้เธอมีพลังในการเรียกเหล่าวายร้ายทุกตัวที ่โปเคยกำราบไปสู่ดินแดนจิตวิญญาณให้กลับมาอีกครั้ง

    ดังนั้น โปก็ต้องการความช่วยเหลือ เขาพบความช่วยเหลือที่ว่า (หรือประมาณนั้นแหละ) จากหัวขโมยสมองไว เจิน (อควาฟินา) จิ้งจอกคอร์แซ็ก ผู้ทำให้โปหงุดหงิดจนขนฟู แต่มีฝีมือที่เป็นประโยชน์อย่างยิ่ง ในการเดินทางเพื่อปกป้องหุบเขาแห่งสันติจากกรงเล็บสั ตว์เลื้อยคลานของคาเมเลียน คู่หูคู่ตลกนี้จะต้องจับอุ้งเท้าร่วมงานกัน และในการนี้เอง โปจะได้ค้นพบว่า ฮีโรอาจถูกค้นพบได้ในสถานที่ที่คาดไม่ถึงที่สุด

    Video
    ID : 1
    Format : AVC
    Format/Info : Advanced Video Codec
    Format profile : High@L4
    Format settings : CABAC / 4 Ref Frames
    Format settings, CABAC : Yes
    Format settings, Reference : 4 frames
    Codec ID : V_MPEG4/ISO/AVC
    Duration : 1 h 35 min
    Bit rate mode : Constant
    Bit rate : 6 228 kb/s
    Nominal bit rate : 10 000 kb/s
    Width : 1 920 pixels
    Height : 800 pixels
    Display aspect ratio : 2.40:1
    Frame rate mode : Constant
    Frame rate : 23.976 (24000/1001) FPS
    Color space : YUV
    Chroma subsampling : 4:2:0
    Bit depth : 8 bits
    Scan type : Progressive
    Bits/(Pixel*Frame) : 0.169
    Stream size : 4.14 GiB (85%)
    Language : English (US)
    Default : Yes
    Forced : No
    Color range : Limited
    Color primaries : BT.709
    Transfer characteristics : BT.709
    Matrix coefficients : BT.709

    Audio #1
    ID : 2
    Format : E-AC-3 JOC
    Format/Info : Enhanced AC-3 with Joint Object Coding
    Commercial name : Dolby Digital Plus with Dolby Atmos
    Codec ID : A_EAC3
    Duration : 1 h 33 min
    Bit rate mode : Constant
    Bit rate : 768 kb/s
    Channel(s) : 6 channels
    Channel layout : L R C LFE Ls Rs
    Sampling rate : 48.0 kHz
    Frame rate : 31.250 FPS (1536 SPF)
    Compression mode : Lossy
    Delay relative to video : 17 ms
    Stream size : 514 MiB (10%)
    Title : English (DD+ Atmos 5.1 - Amazon)
    Language : English
    Service kind : Complete Main
    Default : No
    Forced : No
    Complexity index : 16
    Number of dynamic objects : 15
    Bed channel count : 1 channel
    Bed channel configuration : LFE

    Audio #2
    ID : 3
    Format : AC-3
    Format/Info : Audio Coding 3
    Commercial name : Dolby Digital
    Codec ID : A_AC3
    Duration : 1 h 33 min
    Bit rate mode : Constant
    Bit rate : 384 kb/s
    Channel(s) : 6 channels
    Channel layout : L R C LFE Ls Rs
    Sampling rate : 48.0 kHz
    Frame rate : 31.250 FPS (1536 SPF)
    Compression mode : Lossy
    Stream size : 257 MiB (5%)
    Title : Thai (DD 5.1 - iTunes)
    Language : Thai
    Service kind : Complete Main
    Default : Yes
    Forced : No

    Text #1
    ID : 4
    Format : UTF-8
    Codec ID : S_TEXT/UTF8
    Codec ID/Info : UTF-8 Plain Text
    Duration : 1 h 26 min
    Bit rate : 69 b/s
    Frame rate : 0.262 FPS
    Count of elements : 1361
    Stream size : 43.7 KiB (0%)
    Title : English (SRT - Amazon)
    Language : English
    Default : No
    Forced : No

    Text #2
    ID : 5
    Format : UTF-8
    Codec ID : S_TEXT/UTF8
    Codec ID/Info : UTF-8 Plain Text
    Duration : 1 h 31 min
    Bit rate : 127 b/s
    Frame rate : 0.229 FPS
    Count of elements : 1256
    Stream size : 85.8 KiB (0%)
    Title : Thai (SRT - iTunes)
    Language : Thai
    Default : Yes
    Forced : No

    Menu
    00:00:00.000 : en:Chapter 01
    00:02:37.073 : en:Chapter 02
    00:06:21.881 : en:Chapter 03
    00:12:24.911 : en:Chapter 04
    00:19:27.584 : en:Chapter 05
    00:25:28.737 : en:Chapter 06
    00:33:32.512 : en:Chapter 07
    00:40:16.708 : en:Chapter 08
    00:47:39.818 : en:Chapter 09
    00:52:12.340 : en:Chapter 10
    00:58:14.619 : en:Chapter 11
    01:04:06.596 : en:Chapter 12
    01:12:17.420 : en:Chapter 13
    01:16:51.903 : en:Chapter 14
    01:22:25.945 : en:Chapter 15
    01:24:48.880 : en:Chapter 16





    Kung.Fu.Panda.4.2024.1080p.AMZN.WEB-DL.DDP5.1.H264.mkv
    http://www.filecondo.com/dl.php?f=H885491S4E9d

    5.46 GB

    Kung.Fu.Panda.4.2024.1080p.AMZN.WEB-DL.DDP5.1.Atmos.H.264.mkv
    http://www.filecondo.com/dl.php?f=Uc806b1S4Fqw

    5.26 GB

  2. The Following 5 Users Say Thank You to Duckload.us For This Useful Post:

    bigbang06 (05-10-2024), Jodz14 (05-08-2024), Nam1499 (05-09-2024), sawara (05-12-2024), Wesker_TOT (05-09-2024)

  3. #2
    Senior Member
    สมัครเมื่อ
    Dec 2013
    โพสต์
    6,232
    Thanks
    8,215
    Thanked 0 Times in 0 Posts
    ขอบคุณครับ...

  4. #3
    Senior Member
    สมัครเมื่อ
    Feb 2024
    โพสต์
    333
    Thanks
    301
    Thanked 0 Times in 0 Posts
    ข อ บ คุ ณ ม า ก ค่ ะ

  5. #4
    Senior Member
    สมัครเมื่อ
    Dec 2013
    โพสต์
    1,057
    Thanks
    1,019
    Thanked 0 Times in 0 Posts
    ขอบคุณครับบ

+ ตอบกลับกระทู้

ข้อมูลกระทู้

Users Browsing this Thread

ในขณะนี้มี 1 ท่านดูกระทู้อยู่. (0 สมาชิกและ 1 ผู้เยี่ยมชม)

     

กฎการโพสต์ข้อความ

  • ท่าน ไม่สามารถ ตั้งกระทู้ใหม่ได้
  • ท่าน ไม่สามารถ ตอบกระทู้ได้
  • ท่าน ไม่สามารถ แนบไฟล์ได้
  • ท่าน ไม่สามารถ แก้ไขข้อความโพสต์ได้
  • BB code สถานะ เปิด
  • Smilies สถานะ เปิด
  • [IMG] สถานะ เปิด
  • HTML สถานะ ปิด