+ Reply to Thread
Results 1 to 4 of 4
  1. #1
    Administrators Duckload.us's Avatar
    Join Date
    Dec 2010
    Posts
    107,806
    Thanks
    7
    Thanked 112,698 Times in 52,130 Posts

    Question [ฝรั่ง]-[* ใหม่ร้อนๆ เสียงไทยมาสเตอร์ *] Slaughterhouse Rulez (2018) โรงเรียนสยอง อสูรใต้โลก [* 1080p.BluRay.x264.AC3.THM2.0 *] [พากย์ไทยมาสเตอร์ 2.0 + เสียงอังกฤษ 5.1] [บรรยายไทย + อังกฤษ]



    เรื่องย่อ : เรื่องราวของโรงเรียนประจำที่มีชื่อเสียงโด่งดังของอ ังกฤษกลายเป็นสมรภูมิเลือด เมื่อหลุดฝังศพลึกลับปรากฏขึ้นในป่าใกล้โรงเรียน ทำให้เกิดความสยดสยองที่ไม่อาจคาดเดา!!!


    Video
    ID : 1
    Format : AVC
    Format/Info : Advanced Video Codec
    Format profile : [email protected]
    Format settings, CABAC : Yes
    Format settings, RefFrames : 4 frames
    Codec ID : V_MPEG4/ISO/AVC
    Duration : 1 h 43 min
    Bit rate : 2 500 kb/s
    Width : 1 920 pixels
    Height : 804 pixels
    Display aspect ratio : 2.40:1
    Frame rate mode : Constant
    Frame rate : 23.976 (24000/1001) FPS
    Original frame rate : 23.976 (23976/1000) FPS
    Color space : YUV
    Chroma subsampling : 4:2:0
    Bit depth : 8 bits
    Scan type : Progressive
    Bits/(Pixel*Frame) : 0.068
    Stream size : 1.81 GiB (79%)
    Title : Slaughterhouse.Rulez.2018.1080p.BluRay.x264.AC3.TH M2.0_HeRMineZ
    Writing library : x264 core 152 r2851M ba24899
    Encoding settings : cabac=1 / ref=4 / deblock=1:-1:-1 / analyse=0x3:0x113 / me=umh / subme=9 / psy=1 / psy_rd=1.00:0.15 / mixed_ref=1 / me_range=24 / chroma_me=1 / trellis=2 / 8x8dct=1 / cqm=0 / deadzone=21,11 / fast_pskip=1 / chroma_qp_offset=-3 / threads=32 / lookahead_threads=4 / sliced_threads=0 / nr=0 / decimate=1 / interlaced=0 / bluray_compat=0 / constrained_intra=0 / bframes=3 / b_pyramid=2 / b_adapt=2 / b_bias=0 / direct=3 / weightb=1 / open_gop=0 / weightp=2 / keyint=250 / keyint_min=25 / scenecut=40 / intra_refresh=0 / rc_lookahead=50 / rc=2pass / mbtree=1 / bitrate=2500 / ratetol=1.0 / qcomp=0.60 / qpmin=0 / qpmax=69 / qpstep=4 / cplxblur=20.0 / qblur=0.5 / vbv_maxrate=31250 / vbv_bufsize=31250 / nal_hrd=none / filler=0 / ip_ratio=1.40 / aq=3:1.00
    Default : Yes
    Forced : No

    Audio #1
    ID : 2
    Format : AC-3
    Format/Info : Audio Coding 3
    Format settings, Endianness : Big
    Codec ID : A_AC3
    Duration : 1 h 43 min
    Bit rate mode : Constant
    Bit rate : 192 kb/s
    Channel(s) : 2 channels
    Channel positions : Front: L R
    Sampling rate : 48.0 kHz
    Frame rate : 31.250 FPS (1536 SPF)
    Bit depth : 16 bits
    Compression mode : Lossy
    Stream size : 142 MiB (6%)
    Title : Thai Master 2.0 @192 Kbps
    Language : Thai
    Service kind : Complete Main
    Default : Yes
    Forced : No

    Audio #2
    ID : 3
    Format : AC-3
    Format/Info : Audio Coding 3
    Format settings, Endianness : Big
    Codec ID : A_AC3
    Duration : 1 h 43 min
    Bit rate mode : Constant
    Bit rate : 448 kb/s
    Channel(s) : 6 channels
    Channel positions : Front: L C R, Side: L R, LFE
    Sampling rate : 48.0 kHz
    Frame rate : 31.250 FPS (1536 SPF)
    Bit depth : 16 bits
    Compression mode : Lossy
    Stream size : 332 MiB (14%)
    Title : English 5.1 @448 Kbps (ในไฟล์เขียนผิด!)
    Language : English
    Service kind : Complete Main
    Default : No
    Forced : No

    Text #1
    ID : 4
    Format : VobSub
    Muxing mode : zlib
    Codec ID : S_VOBSUB
    Codec ID/Info : Picture based subtitle format used on DVDs
    Duration : 1 h 40 min
    Bit rate : 10.9 kb/s
    Count of elements : 1577
    Stream size : 7.82 MiB (0%)
    Title : Thai
    Language : Thai
    Default : Yes
    Forced : No

    Text #2
    ID : 5
    Format : VobSub
    Muxing mode : zlib
    Codec ID : S_VOBSUB
    Codec ID/Info : Picture based subtitle format used on DVDs
    Duration : 1 h 37 min
    Bit rate : 11.9 kb/s
    Count of elements : 1448
    Stream size : 8.27 MiB (0%)
    Title : English
    Language : English
    Default : No
    Forced : No
















    Download: cornfile
    http://cornfile.com/xcsjf3z6xlwk
    Download: mekafile
    http://www.mekafile.com/dl.php?f=6J514dbVIkO7

  2. The Following 7 Users Say Thank You to Duckload.us For This Useful Post:

    apichartdear (06-26-2019), bigbang06 (06-26-2019), NaiWan (06-26-2019), noi54 (07-04-2019), smakha (06-26-2019), thesuperpop (09-12-2019), Wesker_TOT (06-26-2019)

  3. #2
    Senior Member
    Join Date
    Jun 2014
    Posts
    1,192
    Thanks
    0
    Thanked 0 Times in 0 Posts
    ขอบคุณครับ

  4. #3
    Senior Member
    Join Date
    Dec 2013
    Posts
    1,819
    Thanks
    3,757
    Thanked 0 Times in 0 Posts
    ขอบคุณครับ...

  5. #4
    Senior Member
    Join Date
    Dec 2011
    Posts
    2,166
    Thanks
    0
    Thanked 0 Times in 0 Posts
    Thank you ka

+ Reply to Thread

Thread Information

Users Browsing this Thread

There are currently 1 users browsing this thread. (0 members and 1 guests)

     

Posting Permissions

  • You may not post new threads
  • You may not post replies
  • You may not post attachments
  • You may not edit your posts