Format : Matroska
Format version : Version 4 / Version 2
File size : 5.37 GiB
Duration : 1 h 42 min
Overall bit rate : 7 526 kb/s
Movie name : [email protected]
Encoded date : UTC 2019-07-06 23:51:48
Writing application : mkvmerge v24.0.0 ('Beyond The Pale') 64-bit
Writing library : libebml v1.3.6 + libmatroska v1.4.9

Video
ID : 1
Format : AVC
Format/Info : Advanced Video Codec
Format profile : [email protected]
Format settings, CABAC : Yes
Format settings, RefFrames : 3 frames
Codec ID : V_MPEG4/ISO/AVC
Duration : 1 h 42 min
Bit rate : 7 293 kb/s
Width : 1 920 pixels
Height : 1 080 pixels
Display aspect ratio : 16:9
Frame rate mode : Constant
Frame rate : 23.976 (24000/1001) FPS
Color space : YUV
Chroma subsampling : 4:2:0
Bit depth : 8 bits
Scan type : Progressive
Bits/(Pixel*Frame) : 0.147
Stream size : 5.20 GiB (97%)
Default : Yes
Forced : No


Audio
ID : 2
Format : E-AC-3
Format/Info : Enhanced Audio Coding 3
Format settings, Endianness : Big
Codec ID : A_EAC3
Duration : 1 h 42 min
Bit rate mode : Constant
Bit rate : 192 kb/s
Channel(s) : 6 channels
Channel positions : Front: L C R, Side: L R, LFE
Sampling rate : 48.0 kHz
Frame rate : 187.500 FPS (256 SPF)
Compression mode : Lossy
Delay relative to video : -41 ms
Stream size : 140 MiB (3%)
Title : HINDI AC3
Language : India
Service kind : Complete Main
Default : Yes
Forced : No

Text #1
ID : 3
Format : PGS
Muxing mode : zlib
Codec ID : S_HDMV/PGS
Codec ID/Info : Picture based subtitle format used on BDs/HD-DVDs
Duration : 1 h 36 min
Bit rate : 36.5 kb/s
Count of elements : 2008
Stream size : 25.2 MiB (0%)
Title : TH PGS
Language : Thai
Default : Yes
Forced : No

Text #2
ID : 4
Format : PGS
Muxing mode : zlib
Codec ID : S_HDMV/PGS
Codec ID/Info : Picture based subtitle format used on BDs/HD-DVDs
Duration : 1 h 34 min
Bit rate : 37.2 kb/s
Count of elements : 2052
Stream size : 25.2 MiB (0%)
Title : EN_PGS
Language : English
Default : No
Forced : No

Download: cornfile
http://cornfile.com/guixg0chbs4q
Download: mekafile
http://www.mekafile.com/dl.php?f=WZ7918bWhkLi