+ Reply to Thread
Results 1 to 2 of 2
  1. #1
    Administrators Duckload.us's Avatar
    Join Date
    Dec 2010
    Posts
    104,433
    Thanks
    9
    Thanked 107,682 Times in 50,781 Posts

    Exclamation [ฝรั่ง]-[Mini-HD] Collateral (2004) / สกัดแผนฆ่า ล่าอำมหิต -MiniBD.AC-3.720p. [Modified]-[พากย์ไทย]



    [ เรื่องย่อ / Synopsis / ]
    แม็กซ์ (เจมี่ ฟ็อกซ์) ใช้ชีวิตดิ้นรนหาเลี้ยงปากท้อง ด้วยการขับรถแท็กซี่มานานกว่า 12 ปี ใบหน้ามากมายที่ปรากฏขึ้นที่กระจกมองหลัง ผ่านมาและผ่านไป ผู้คนและสถานที่มากมายที่เขาลืมเลือน จนกระทั่งคืนนี้ ที่เขาได้พบกับ วินเซนต์ (ทอม ครูซ) นักฆ่าตามใบสั่ง

    เมื่อแก๊งค์ค้ายาเสพติดรู้ว่า พวกเขากำลังจะถูกฟ้องร้องโดยคณะลูกขุนของรัฐ จึงจัดการสืบหาตัวพยาน และส่งนักฆ่าไปฆ่าพยานปากเอกทั้งหลาย และขั้นตอนสุดท้าย ในการปิดปากพยานจะมีขึ้นในคืนนี้ เมื่อวินเซนต์เดินทางมาถึงแอลเอ... จะมีคนห้าคนต้องตาย

    สถานการณ์ทำให้วินเซนต์ต้องจี้รถแท็กซี่ของแม็กซ์ ทำให้แม็กซ์ที่ไปอยู่ผิดที่ผิดเวลา และต้องกลาย เป็นตัวประกันในรถแท็กซี่ของเขาเอง ตลอดค่ำคืนนั้น วินเซนต์บังคับให้แม็กซ์ขับรถพาเขาไปหาเป้าหมายแต่ละ ราย และในขณะที่ตำรวจแอลเอ และเจ้าหน้าที่เอฟบีไอกำลังไล่ล่าเพื่อหยุดยั้งพวกเข า การมีชีวิตรอดของแม็กซ์และวินเซนต์ ทำให้พวกเขาต้องพึ่งพิงกัน ..ในแบบที่ไม่มีใครคาดคิด!!!

    General
    Unique ID : 217055259569130087488915425027455135344 (0xA34B5288BF39729592FCC2AC44F72E70)
    Complete name : C:UsersMaleeDesktopMN_Collateral_[2004]_[720p]_www.absolute-load-hd.com.mkv
    Format : Matroska
    Format version : Version 2
    File size : 4.29 GiB
    Duration : 1h 59mn
    Overall bit rate : 5 117 Kbps
    Encoded date : UTC 2012-01-14 04:49:14
    Writing application : mkvmerge v3.2.0 ( Beginnings ) built on Feb 12 2010 16:46:17
    Writing library : libebml v0.7.9 + libmatroska v0.8.1

    Video
    ID : 1
    Format : AVC
    Format/Info : Advanced Video Codec
    Format profile : [email protected]
    Format settings, CABAC : Yes
    Format settings, ReFrames : 3 frames
    Codec ID : V_MPEG4/ISO/AVC
    Duration : 1h 59mn
    Bit rate : 3 000 Kbps
    Width : 1 280 pixels
    Height : 720 pixels
    Display aspect ratio : 16:9
    Frame rate mode : Constant
    Frame rate : 23.976 fps
    Color space : YUV
    Chroma subsampling : 4:2:0
    Bit depth : 8 bits
    Scan type : Progressive
    Bits/(Pixel*Frame) : 0.136
    Stream size : 2.40 GiB (56%)
    Title : Collateral.2004.720p.DTS-EN.AC3-TH.siambit.tv.com
    Writing library : x264 core 86 r1442M 781d300
    Encoding settings : cabac=1 / ref=3 / deblock=1:0:0 / analyse=0x3:0x133 / me=hex / subme=7 / psy=1 / psy_rd=1.00:0.00 / mixed_ref=1 / me_range=16 / chroma_me=1 / trellis=1 / 8x8dct=1 / cqm=0 / deadzone=21,11 / fast_pskip=1 / chroma_qp_offset=-2 / threads=4 / sliced_threads=0 / nr=0 / decimate=1 / interlaced=0 / constrained_intra=0 / bframes=3 / b_pyramid=1 / b_adapt=2 / b_bias=0 / direct=3 / wpredb=1 / wpredp=2 / keyint=230 / keyint_min=23 / scenecut=40 / intra_refresh=0 / rc_lookahead=40 / rc=abr / mbtree=1 / bitrate=3000 / ratetol=0.2 / qcomp=0.60 / qpmin=10 / qpmax=51 / qpstep=4 / ip_ratio=1.41 / aq=1:1.00 / pulldown=0
    Language : English
    Default : Yes
    Forced : No

    Audio #1
    ID : 2
    Format : AC-3
    Format/Info : Audio Coding 3
    Mode extension : CM (complete main)
    Format settings, Endianness : Big
    Codec ID : A_AC3
    Duration : 1h 59mn
    Bit rate mode : Constant
    Bit rate : 640 Kbps
    Channel(s) : 6 channels
    Channel positions : Front: L C R, Side: L R, LFE
    Sampling rate : 48.0 KHz
    Bit depth : 16 bits
    Compression mode : Lossy
    Stream size : 549 MiB (13%)
    Title : Thai AC3-640kbps BD
    Language : Thai
    Default : No
    Forced : No

    Audio #2
    ID : 3
    Format : DTS
    Format/Info : Digital Theater Systems
    Mode : 16
    Format settings, Endianness : Big
    Codec ID : A_DTS
    Duration : 1h 59mn
    Bit rate mode : Constant
    Bit rate : 1 509 Kbps
    Channel(s) : 6 channels
    Channel positions : Front: L C R, Side: L R, LFE
    Sampling rate : 48.0 KHz
    Bit depth : 24 bits
    Compression mode : Lossy
    Delay relative to video : 11ms
    Stream size : 1.26 GiB (29%)
    Title : English DTS-1536kbps
    Language : English
    Default : No
    Forced : No

    Text #1
    ID : 4
    Format : VobSub
    Muxing mode : zlib
    Codec ID : S_VOBSUB
    Codec ID/Info : The same subtitle format used on DVDs
    Title : Thai 480p
    Language : Thai
    Default : No
    Forced : No

    Text #2
    ID : 5
    Format : VobSub
    Muxing mode : zlib
    Codec ID : S_VOBSUB
    Codec ID/Info : The same subtitle format used on DVDs
    Title : Thai 1080p
    Language : Thai
    Default : No
    Forced : No

    Text #3
    ID : 6
    Format : VobSub
    Muxing mode : zlib
    Codec ID : S_VOBSUB
    Codec ID/Info : The same subtitle format used on DVDs
    Title : Thai Original BD
    Language : Thai
    Default : No
    Forced : No

    Text #4
    ID : 7
    Format : VobSub
    Muxing mode : zlib
    Codec ID : S_VOBSUB
    Codec ID/Info : The same subtitle format used on DVDs
    Title : English 480p
    Language : English
    Default : No
    Forced : No

    Text #5
    ID : 8
    Format : VobSub
    Muxing mode : zlib
    Codec ID : S_VOBSUB
    Codec ID/Info : The same subtitle format used on DVDs
    Title : English 1080p
    Language : English
    Default : No
    Forced : No

    Text #6
    ID : 9
    Format : VobSub
    Muxing mode : zlib
    Codec ID : S_VOBSUB
    Codec ID/Info : The same subtitle format used on DVDs
    Title : English Original BD
    Language : English
    Default : No
    Forced : No






    เครดิต unicorn

    http://www.mekafile.com/dl.php?f=K420c5aSZBHW

  2. #2
    Senior Member
    Join Date
    Sep 2012
    Posts
    116
    Thanks
    87
    Thanked 0 Times in 0 Posts
    thank you very much

+ Reply to Thread

Thread Information

Users Browsing this Thread

There are currently 1 users browsing this thread. (0 members and 1 guests)

     

Posting Permissions

  • You may not post new threads
  • You may not post replies
  • You may not post attachments
  • You may not edit your posts