+ ตอบกลับกระทู้
สรุปผลการค้นหา 1 ถึง 1 จากทั้งหมด 1
  1. #1
    Administrators รูปส่วนตัว Duckload.us
    สมัครเมื่อ
    Dec 2010
    โพสต์
    150,748
    Thanks
    7
    Thanked 158,010 Times in 68,987 Posts

    Exclamation [ฝรั่ง]-[Won 6 Oscars] Chicago (2002) ชิคาโก [1080p.DTS] [พากย์ไทย 5.1 ซับไทย PGS คมชัด]



    http://www.imdb.com/title/tt0299658/
    Ratings: 7.2/10 from 163,840 use

    ภาพยนต์เพลงเพียงเรื่องเดียวที่จะตราตรึงหัวใจคุณมิร ู้ลืม เมื่อการฆาตกรรม, ฉ้อฉลหลอกลวงและเล่ห์เพทุบาย ได้ร้อยเรื่องราวของ 2 นักร้องสาว ร็อกซี่ ฮาร์ท และ เวลม่า เคลลี่ พร้อมด้วยทนายจอมกะล่อน บิลลี่ ฟลินน์ เป็นบทเพลง ลีลาร่ายรำ และการแสดงในระดับที่เหนือกว่าคำว่าสุดยอด..!

    ร็อกซี่ ฮาร์ท (เรเน่ เซลเวเกอร์) ฆ่าชู้รักของเธอตาย และถูกตำรวจจับเข้าคุกในคืนเดียวกัน อีกทั้งเธอยังรับรู้ว่าเธอจะต้องถูกประหารชีวิตโดยกา รแขวนคอทำให้เธอเศร้าใจ ในคุกเธอได้พบกับเวลม่า เคลลี่ (แคเธอรีน ซีตา-โจนส์) นักเต้นคนดังของชิคาโกที่ถูกจับในข้อหาฆาตกรรม ในเวลาต่อมาร็อกซี่ได้ติดต่อกับบิลลี่ ฟรินท์ (ริชาร์ด เกียร์) ทนายความมากฝีมือที่ไม่เคยแพ้คดีความ เป็นผู้ทำคดีให้เธอพ้นผิด ในขณะเดียวกัน ร็อกซี่กลายเป็นคนมีชื่อเสียงทั้งๆที่ยังติดคุกและเร ิ่มหลงตัวเอง จนกระทั่งชื่อเสียงของร็อกซี่บดบังรุ่นพี่อย่างเวลม่ าที่รู้สึกอิจฉาร็อกซี่และต้องการให้ตัวเธอกลับมาโด่ งดังอีกครั้ง ในชิคาโกที่ไม่เคยมีอะไรยั่งยืน!!

    Format : Matroska
    Format version : Version 2
    File size : 3.54 GiB
    Duration : 1h 53mn
    Overall bit rate : 4 471 Kbps
    Movie name : Chicago.2002.1080p.DTS.BrRip.x264-joythun

    Video
    ID : 1
    Format : AVC
    Format/Info : Advanced Video Codec
    Format profile : [email protected]
    Format settings, CABAC : Yes
    Format settings, ReFrames : 3 frames
    Muxing mode : Header stripping
    Codec ID : V_MPEG4/ISO/AVC
    Duration : 1h 53mn
    Bit rate : 3 200 Kbps
    Width : 1 920 pixels
    Height : 1 040 pixels
    Display aspect ratio : 16:9
    Frame rate mode : Variable
    Frame rate : 23.976 fps
    Color space : YUV
    Chroma subsampling : 4:2:0
    Bit depth : 8 bits
    Scan type : Progressive
    Bits/(Pixel*Frame) : 0.067
    Stream size : 2.52 GiB (71%)
    Writing library : x264 core 116 r2019M 9cc407d
    Encoding settings : cabac=1 / ref=3 / deblock=1:0:0 / analyse=0x3:0x133 / me=hex / subme=7 / psy=1 / psy_rd=1.00:0.20 / mixed_ref=1 / me_range=16 / chroma_me=1 / trellis=1 / 8x8dct=1 / cqm=0 / deadzone=21,11 / fast_pskip=1 / chroma_qp_offset=-3 / threads=8 / sliced_threads=0 / nr=0 / decimate=1 / interlaced=0 / bluray_compat=0 / constrained_intra=0 / bframes=3 / b_pyramid=1 / b_adapt=2 / b_bias=0 / direct=3 / weightb=1 / open_gop=0 / weightp=2 / keyint=230 / keyint_min=23 / scenecut=40 / intra_refresh=0 / rc_lookahead=40 / rc=2pass / mbtree=1 / bitrate=3200 / ratetol=1.0 / qcomp=0.60 / qpmin=10 / qpmax=51 / qpstep=4 / cplxblur=20.0 / qblur=0.5 / ip_ratio=1.40 / aq=1:1.00
    Language : English
    Default : Yes
    Forced : No

    Audio #1
    ID : 2
    Format : AC-3
    Format/Info : Audio Coding 3
    Mode extension : CM (complete main)
    Muxing mode : Header stripping
    Codec ID : A_AC3
    Duration : 1h 53mn
    Bit rate mode : Constant
    Bit rate : 448 Kbps
    Channel(s) : 6 channels
    Channel positions : Front: L C R, Side: L R, LFE
    Sampling rate : 48.0 KHz
    Bit depth : 16 bits
    Compression mode : Lossy
    Stream size : 364 MiB (10%)
    Title : THAI Master AC3 5.1 @ 448 Kbps
    Language : Thai
    Default : Yes
    Forced : Yes

    Audio #2
    ID : 3
    Format : DTS
    Format/Info : Digital Theater Systems
    Muxing mode : Header stripping
    Codec ID : A_DTS
    Duration : 1h 53mn
    Bit rate mode : Constant
    Bit rate : 755 Kbps
    Channel(s) : 6 channels
    Channel positions : Front: L C R, Side: L R, LFE
    Sampling rate : 48.0 KHz
    Bit depth : 24 bits
    Compression mode : Lossy
    Stream size : 612 MiB (17%)
    Title : ENG DTS 5.1 @ 775 Kbps
    Language : English
    Default : No
    Forced : No

    Text #1
    ID : 4
    Format : VobSub
    Muxing mode : zlib
    Codec ID : S_VOBSUB
    Codec ID/Info : The same subtitle format used on DVDs
    Title : THAI 480p DVD Master
    Language : Thai
    Default : No
    Forced : No

    Text #2
    ID : 5
    Format : VobSub
    Muxing mode : zlib
    Codec ID : S_VOBSUB
    Codec ID/Info : The same subtitle format used on DVDs
    Title : THAI 1080p
    Language : Thai
    Default : Yes
    Forced : Yes

    Text #3
    ID : 6
    Format : VobSub
    Muxing mode : zlib
    Codec ID : S_VOBSUB
    Codec ID/Info : The same subtitle format used on DVDs
    Title : THAI 1080p Yellow
    Language : Thai
    Default : No
    Forced : No

    Text #4
    ID : 7
    Format : VobSub
    Muxing mode : zlib
    Codec ID : S_VOBSUB
    Codec ID/Info : The same subtitle format used on DVDs
    Title : THAI 1080p Out
    Language : Thai
    Default : No
    Forced : No

    Text #5
    ID : 8
    Format : PGS
    Muxing mode : zlib
    Codec ID : S_HDMV/PGS
    Codec ID/Info : The same subtitle format used on BDs/HD-DVDs
    Title : THAI PGS 1080p
    Language : Thai
    Default : No
    Forced : No

    Text #6
    ID : 9
    Format : PGS
    Muxing mode : zlib
    Codec ID : S_HDMV/PGS
    Codec ID/Info : The same subtitle format used on BDs/HD-DVDs
    Title : THAI PGS 1080p Out
    Language : Thai
    Default : No
    Forced : No

    Text #7
    ID : 10
    Format : UTF-8
    Codec ID : S_TEXT/UTF8
    Codec ID/Info : UTF-8 Plain Text
    Title : ENG SRT
    Language : English
    Default : No
    Forced : No








    Quote:
    พากย์ไทย 5.1 ซับไทย PGS คมชัดจาก DVD มาสเตอร์


    http://www.filecondo.com/dl.php?f=ts5df3b4uzeB

  2. The Following User Says Thank You to Duckload.us For This Useful Post:

    kappa (12-04-2015)

+ ตอบกลับกระทู้

ข้อมูลกระทู้

Users Browsing this Thread

ในขณะนี้มี 1 ท่านดูกระทู้อยู่. (0 สมาชิกและ 1 ผู้เยี่ยมชม)

     

กฎการโพสต์ข้อความ

  • ท่าน ไม่สามารถ ตั้งกระทู้ใหม่ได้
  • ท่าน ไม่สามารถ ตอบกระทู้ได้
  • ท่าน ไม่สามารถ แนบไฟล์ได้
  • ท่าน ไม่สามารถ แก้ไขข้อความโพสต์ได้
  • BB code สถานะ เปิด
  • Smilies สถานะ เปิด
  • [IMG] สถานะ เปิด
  • HTML สถานะ ปิด