+ ตอบกลับกระทู้
สรุปผลการค้นหา 1 ถึง 2 จากทั้งหมด 2
  1. #1
    Administrators รูปส่วนตัว Duckload.us
    สมัครเมื่อ
    Dec 2010
    โพสต์
    112,881
    Thanks
    7
    Thanked 118,759 Times in 53,714 Posts

    Exclamation [ฝรั่ง]-[ชัด 1080p + กระหึ่ม] The League Of Extraordinary Gentlemen (2003) : เดอะลีค มหัศจรรย์ชน...คนพิทักษ์โลก -CtHts. [พากย์ไทย 5.1 + อังกฤษ DTS-HD MA 5.1 @ZEZA]-[บรรยายไทย + อังกฤษ]-[เสียงไทย + ซับไทย From Blu-Ray MASTER +ซับ PGS คมชัด]




    wrote:

    ในขณะที่นานาประเทศถูกดึงเข้าสู่ภาวะสงครามจากแผนของ จอมวายร้ายนามว่า "แฟนธ่อม"
    โลกจึงต้องฝากความหวังไว้ที่ฮีโร่ผู้ไม่ธรรมดาทั้งเจ ็ด อาทิ จอมพราน อลัน ควอเตอร์แมน, สายลับหนุ่มทอม ซอว์เยอร์, กัปตันนีโม, มีนา แวมไพร์สาว,
    มนุษย์สองร่าง ดร.เจคิลล์และมิสเตอร์ไฮด์, มนุษย์ล่องหน, และดอเรียน เกรย์ เพชฌฆาตอมตะในนาม เดอะลีค มหัศจรรย์ชน คนพิทักษ์โลก
    พบเหล่าตัวละครดังจากนิยายและการ์ตูนหลายๆ เรื่องมารวมกันเป็นทีมซุปเปอร์ฮีโร่ ในหนังแอ็คชั่นสเปเชี่ยลเอฟเฟ็กต์ จากผู้กำกับ Blade!!!


    wrote:

    Format : Matroska
    Format version : Version 4 / Version 2
    File size : 9.98 GiB
    Duration : 1h 50mn
    Overall bit rate mode : Variable
    Overall bit rate : 13.0 Mbps
    Movie name : The.League.of.Extraordinary.Gentlemen.(2003).1080p [email protected]

    Video
    ID : 1
    Format : AVC
    Format/Info : Advanced Video Codec
    Format profile : [email protected]
    Format settings, CABAC : Yes
    Format settings, ReFrames : 4 frames
    Codec ID : V_MPEG4/ISO/AVC
    Duration : 1h 50mn
    Bit rate : 10.4 Mbps
    Nominal bit rate : 8 220 Kbps
    Width : 1 920 pixels
    Height : 812 pixels
    Display aspect ratio : 2.35:1
    Frame rate mode : Constant
    Frame rate : 23.976 fps
    Color space : YUV
    Chroma subsampling : 4:2:0
    Bit depth : 8 bits
    Scan type : Progressive
    Bits/(Pixel*Frame) : 0.278
    Stream size : 8.01 GiB (80%)
    Title : The.League.of.Extraordinary.Gentlemen.(2003).1080p [email protected]
    Writing library : x264 core 148 r2638 7599210
    Encoding settings : cabac=1 / ref=4 / deblock=1:-3:-2 / analyse=0x3:0x113 / me=umh / subme=9 / psy=1 / psy_rd=1.00:0.15 / mixed_ref=1 / me_range=24 / chroma_me=1 / trellis=1 / 8x8dct=1 / cqm=0 / deadzone=11,21 / fast_pskip=0 / chroma_qp_offset=-4 / threads=12 / lookahead_threads=1 / sliced_threads=0 / nr=0 / decimate=0 / interlaced=0 / bluray_compat=0 / constrained_intra=0 / bframes=5 / b_pyramid=2 / b_adapt=2 / b_bias=0 / direct=1 / weightb=0 / open_gop=0 / weightp=2 / keyint=95 / keyint_min=8 / scenecut=99 / intra_refresh=0 / rc_lookahead=40 / rc=2pass / mbtree=0 / bitrate=8220 / ratetol=1.0 / qcomp=0.60 / qpmin=0 / qpmax=37 / qpstep=2 / cplxblur=20.0 / qblur=0.5 / vbv_maxrate=20000 / vbv_bufsize=25000 / nal_hrd=none / filler=0 / ip_ratio=1.10 / pb_ratio=1.10 / aq=3:0.60
    Language : English
    Default : Yes
    Forced : No

    Audio #1
    ID : 2
    Format : DTS
    Format/Info : Digital Theater Systems
    Format profile : MA / Core
    Codec ID : A_DTS
    Duration : 1h 50mn
    Bit rate mode : Variable
    Bit rate : 1 858 Kbps / 1 510 Kbps
    Channel(s) : 6 channels
    Channel positions : Front: L C R, Side: L R, LFE
    Sampling rate : 48.0 KHz
    Bit depth : 24 bits
    Compression mode : Lossless / Lossy
    Title : Eng DTS-HD.MA.5.1
    Language : English
    Default : Yes
    Forced : Yes

    Audio #2
    ID : 3
    Format : AC-3
    Format/Info : Audio Coding 3
    Mode extension : CM (complete main)
    Format settings, Endianness : Big
    Codec ID : A_AC3
    Duration : 1h 50mn
    Bit rate mode : Constant
    Bit rate : 448 Kbps
    Channel(s) : 6 channels
    Channel positions : Front: L C R, Side: L R, LFE
    Sampling rate : 48.0 KHz
    Bit depth : 16 bits
    Compression mode : Lossy
    Stream size : 353 MiB (3%)
    Title : Thai Dolby 5.1 ch
    Language : Thai
    Default : No
    Forced : No

    Text #1
    ID : 4
    Format : VobSub
    Codec ID : S_VOBSUB
    Codec ID/Info : The same subtitle format used on DVDs
    Title : Thai Vob 480p
    Language : Thai
    Default : Yes
    Forced : Yes

    Text #2
    ID : 5
    Format : VobSub
    Codec ID : S_VOBSUB
    Codec ID/Info : The same subtitle format used on DVDs
    Title : Thai Vob 720p
    Language : Thai
    Default : No
    Forced : No

    Text #3
    ID : 6
    Format : VobSub
    Codec ID : S_VOBSUB
    Codec ID/Info : The same subtitle format used on DVDs
    Title : Thai Vob 1080p
    Language : Thai
    Default : No
    Forced : No

    Text #4
    ID : 7
    Format : PGS
    Codec ID : S_HDMV/PGS
    Codec ID/Info : The same subtitle format used on BDs/HD-DVDs
    Title : Thai PGS In
    Language : Thai
    Default : No
    Forced : No

    Text #5
    ID : 8
    Format : PGS
    Codec ID : S_HDMV/PGS
    Codec ID/Info : The same subtitle format used on BDs/HD-DVDs
    Title : Thai PGS Out
    Language : Thai
    Default : No
    Forced : No

    Text #6
    ID : 9
    Format : PGS
    Codec ID : S_HDMV/PGS
    Codec ID/Info : The same subtitle format used on BDs/HD-DVDs
    Title : Eng PGS
    Language : English
    Default : No
    Forced : No


    wrote:

    SS แค๊ปจากตัวไฟล์ ค่ะ











    ส่งมอบ โดย : NongZEZA

    http://www.mekafile.com/dl.php?f=JC34beaSPWWe fix
    http://www.mekafile.com/dl.php?f=z0c9171zuxTc
    http://www.mekafile.com/dl.php?f=5Te41eb6iRof
    http://www.mekafile.com/dl.php?f=m190741x4k5s

  2. The Following User Says Thank You to Duckload.us For This Useful Post:

    maxnet071 (01-20-2016)

  3. #2
    Senior Member รูปส่วนตัว ksurachai
    สมัครเมื่อ
    Nov 2019
    โพสต์
    116
    Thanks
    32
    Thanked 0 Times in 0 Posts
    รบกวนอัพ cornfile ให้หน่อยครับ

    ขอบคุณครับ

+ ตอบกลับกระทู้

ข้อมูลกระทู้

Users Browsing this Thread

ในขณะนี้มี 1 ท่านดูกระทู้อยู่. (0 สมาชิกและ 1 ผู้เยี่ยมชม)

     

กฎการโพสต์ข้อความ

  • ท่าน ไม่สามารถ ตั้งกระทู้ใหม่ได้
  • ท่าน ไม่สามารถ ตอบกระทู้ได้
  • ท่าน ไม่สามารถ แนบไฟล์ได้
  • ท่าน ไม่สามารถ แก้ไขข้อความโพสต์ได้
  • BB code สถานะ เปิด
  • Smilies สถานะ เปิด
  • [IMG] สถานะ เปิด
  • HTML สถานะ ปิด