+ ตอบกลับกระทู้
สรุปผลการค้นหา 1 ถึง 1 จากทั้งหมด 1
  1. #1
    Administrators รูปส่วนตัว Duckload.us
    สมัครเมื่อ
    Dec 2010
    โพสต์
    129,665
    Thanks
    7
    Thanked 133,637 Times in 59,173 Posts

    Exclamation [ฝรั่ง]-[1080 HQ] Transformers 2 Revenge of the Fallen (2009) ทรานส์ฟอร์เมอร์ส 2 อภิมหาสงครามแค้น Blu-ray 1080p DTS x264 cosmoX [ Sound : Thai - English DTS ] [ Sub : Thai - English ]



    Transformers 2 Revenge of the Fallen (2009)
    ทรานส์ฟอร์เมอร์ส 2 อภิมหาสงครามแค้น

    Directors : Michael Bay
    Writers : Roberto Orci , Ehren Kruger
    Genre : Action , Adventure , Sci-Fi
    Cast : Shia LaBeouf , Megan Fox , Josh Duhamel , Tyrese Gibson
    Country : USA
    Release Date : 23 June 2009 (Thailand)

    IMDb : http://www.imdb.com/title/tt1055369/


    General
    Format : Matroska
    Format version : Version 4 / Version 2
    File size : 4.27 GiB
    Duration : 2h 29mn
    Overall bit rate mode : Variable
    Overall bit rate : 4 083 Kbps
    Encoded date : UTC 2010-02-22 21:41:31
    Writing application : mkvmerge v5.9.0 ( On The Loose ) built on Dec 9 2012 15:37:01
    Writing library : libebml v1.3.0 + libmatroska v1.4.0

    Video
    ID : 1
    Format : AVC
    Format/Info : Advanced Video Codec
    Format profile : [email protected]
    Format settings, CABAC : Yes
    Format settings, ReFrames : 4 frames
    Codec ID : V_MPEG4/ISO/AVC
    Duration : 2h 29mn
    Bit rate mode : Variable
    Bit rate : 2 600 Kbps
    Maximum bit rate : 100.0 Mbps
    Width : 1 920 pixels
    Height : 800 pixels
    Display aspect ratio : 2.40:1
    Frame rate mode : Constant
    Frame rate : 23.976 fps
    Color space : YUV
    Chroma subsampling : 4:2:0
    Bit depth : 8 bits
    Scan type : Progressive
    Bits/(Pixel*Frame) : 0.071
    Stream size : 2.73 GiB (64%)
    Title : [1080 HQ] Transformer 2 (2009) Blu-ray 1080p DTS x264 cosmoX
    Writing library : x264 core 130 r2273 b3065e6
    Encoding settings : cabac=1 / ref=4 / deblock=1:0:0 / analyse=0x3:0x133 / me=umh / subme=11 / psy=1 / psy_rd=1.00:0.15 / mixed_ref=1 / me_range=64 / chroma_me=1 / trellis=2 / 8x8dct=1 / cqm=0 / deadzone=21,11 / fast_pskip=0 / chroma_qp_offset=-3 / threads=16 / lookahead_threads=1 / sliced_threads=0 / nr=0 / decimate=1 / interlaced=0 / bluray_compat=0 / constrained_intra=0 / bframes=4 / b_pyramid=2 / b_adapt=2 / b_bias=0 / direct=3 / weightb=1 / open_gop=0 / weightp=2 / keyint=250 / keyint_min=23 / scenecut=40 / intra_refresh=0 / rc_lookahead=60 / rc=2pass / mbtree=1 / bitrate=2600 / ratetol=1.0 / qcomp=0.60 / qpmin=0 / qpmax=69 / qpstep=4 / cplxblur=20.0 / qblur=0.5 / vbv_maxrate=99999 / vbv_bufsize=99999 / nal_hrd=vbr / ip_ratio=1.40 / aq=1:1.00
    Language : English

    Audio #1
    ID : 2
    Format : AC-3
    Format/Info : Audio Coding 3
    Mode extension : CM (complete main)
    Format settings, Endianness : Big
    Codec ID : A_AC3
    Duration : 2h 29mn
    Bit rate mode : Constant
    Bit rate : 640 Kbps
    Channel count : 6 channels
    Channel positions : Front: L C R, Side: L R, LFE
    Sampling rate : 48.0 KHz
    Bit depth : 16 bits
    Compression mode : Lossy
    Stream size : 686 MiB (16%)
    Title : Thai AC3

    Audio #2
    ID : 3
    Format : DTS
    Format/Info : Digital Theater Systems
    Mode : 16
    Format settings, Endianness : Big
    Codec ID : A_DTS
    Duration : 2h 29mn
    Bit rate mode : Constant
    Bit rate : 755 Kbps
    Channel count : 6 channels
    Channel positions : Front: L C R, Side: L R, LFE
    Sampling rate : 48.0 KHz
    Bit depth : 24 bits
    Compression mode : Lossy
    Stream size : 809 MiB (18%)
    Title : Eng DTS

    Text #1
    ID : 4
    Format : PGS
    Codec ID : S_HDMV/PGS
    Codec ID/Info : The same subtitle format used on BDs/HD-DVDs
    Title : Thai PGS

    Text #2
    ID : 5
    Format : PGS
    Codec ID : S_HDMV/PGS
    Codec ID/Info : The same subtitle format used on BDs/HD-DVDs
    Title : Eng PGS

    Text #3
    ID : 6
    Format : VobSub
    Codec ID : S_VOBSUB
    Codec ID/Info : The same subtitle format used on DVDs
    Title : Thai 1080p from Blu-ray

    Text #4
    ID : 7
    Format : VobSub
    Codec ID : S_VOBSUB
    Codec ID/Info : The same subtitle format used on DVDs
    Title : Eng 1080p from Blu-ray



    สงครามบนโลกมนุษย์ได้ยุติลง แต่ทว่าสงครามในห้วงจักรวาลนั้นเพิ่งจะเริ่มต้น หลังจากการกลับมาถึงไซเบอร์ทรอน สตาร์สครีมได้รับคำสั่งของเจ้าแห่งฝ่ายดีเซปติคอนส์ และได้ตัดสินใจกลับมาบุกรุกโลกพร้อมกองกำลังจักรกลสั งหาร ฝ่ายออโต้บอทส์ ที่เชื่อมั่นในสันติภาพได้พบว่า ซากหุ่นที่ถูกทำลายของเมกาทรอนได้ถูกขโมยไปจากกองทัพ สหรัฐฯ โดยสคอร์ ฟิน็อกซ์ และทำให้คืนชีพขึ้นมาอีกครั้ง ตอนนี้เมกาทรอนจึงกลับมาเพื่อแก้แค้น พร้อมสตาร์สครีมผู้ภักดี และกองทัพจักรกลสังหารฝ่ายดีเซฟติคอนส์ที่เดินทางมาส มทบอีกจำนวนมาก มหาสงครามแค้นครั้งนี้จึงเป็นงานใหญ่สำหรับฝ่ายออโต้ บอทส์ ที่จะต้องรับศึกอันยิ่งใหญ่เกินกว่าที่ใครจะคาดคิดได ้ !!


    http://www.filecondo.com/dl.php?f=J88be51AtsZg

  2. The Following User Says Thank You to Duckload.us For This Useful Post:

    minho104 (09-11-2016)

+ ตอบกลับกระทู้

ข้อมูลกระทู้

Users Browsing this Thread

ในขณะนี้มี 1 ท่านดูกระทู้อยู่. (0 สมาชิกและ 1 ผู้เยี่ยมชม)

     

กฎการโพสต์ข้อความ

  • ท่าน ไม่สามารถ ตั้งกระทู้ใหม่ได้
  • ท่าน ไม่สามารถ ตอบกระทู้ได้
  • ท่าน ไม่สามารถ แนบไฟล์ได้
  • ท่าน ไม่สามารถ แก้ไขข้อความโพสต์ได้
  • BB code สถานะ เปิด
  • Smilies สถานะ เปิด
  • [IMG] สถานะ เปิด
  • HTML สถานะ ปิด