+ ตอบกลับกระทู้
สรุปผลการค้นหา 1 ถึง 1 จากทั้งหมด 1
  1. #1
    Administrators รูปส่วนตัว Duckload.us
    สมัครเมื่อ
    Dec 2010
    โพสต์
    111,146
    Thanks
    7
    Thanked 116,500 Times in 53,090 Posts

    Exclamation [ญี่ปุ่น]- 37.5° C no Namida ~ 37.5 องศา [EP 1-10/END]-HDTV.H.264.720p. [From TV]- [เสียง ญี่ปุ่น] [บรรยาย ไทย Jdrama-th]











    [++มาแล้วแบบจบทั้งเรื่อง++] - 37.5ฐ C no Namida ~ 37.5 องศา (Renbutsu Misako,Narimiya Hiroki,Hayami Mokomichi,Triendl Reina) [EP 1-10/END] [เสียง ญี่ปุ่น] [บรรยาย ไทย Jdrama-th]























    ....โมโมโกะ นักบริบาลมือใหม่ เธอทำงานดูแลเด็กที่ไม่สบายแทนพ่อแม่ที่ต้องทำงาน ซึ่งเธอเชื่อว่า นี่คืองานที่เหมาะกับเธอเอง เธอตั้งใจทำมันอย่างเต็มที่
    แต่เธอมีปมในใจจากครอบครัว ทำให้เธอไม่ค่อยยิ้ม ถึงจะยิ้ม เธอก็ฝืนที่จะยิ้มมันออกมา
    มาติดตามเรื่องราว ที่มีอุณหภูมิไข้อ่อนๆ ที่จะอบอุ่นไปพร้อมๆ กัน
    ที่มีทั้งดราม่า สนุกสนาน และยิ้มแก้มปริไปด้วยกันนะคะ

    ทำไมต้องชื่อเรื่องว่า 37.5 องศาล่ะ? ก็มันคืออุณหภูมิของการเป็นไข้
    เพราะว่า 37.5 องศา ถือว่ามีไข้อ่อนๆ ล่ะค่ะ ที่ญป. ถ้าเด็กมีอุณหภูมินี้
    จะเรียกผู้ปกครองมารับกลับบ้านทันที เพราะจะได้ไม่ไปติดคนอื่นค่ะ











    Details
    Title: 37.5℃ の 涙
    Title (romaji): 37.5ฐ C no Namida
    Format: Renzoku
    Genre: Human drama
    Episodes: 10
    Viewership ratings: 6.14%
    Broadcast network: TBS
    Broadcast period: 2015-Jul-09 to 2015-Sep-17
    Air time: Thursday 21:00
    Theme song: Daijoubu by wacci
    Insert song: EGG by Kimura Kaela

    เครดิต
    ซับไทย โดย naan45 , ทามะจัง
    720P ฝั่งซับอัพโหลดโดย takemuika
    แบ่งปันโดย Jdrama-th

    Cast
    Renbutsu Misako as Sugisaki Momoko
    Inoue Rinna as young Momoko
    Narimiya Hiroki as Asahina Motoharu
    Hayami Mokomichi as Shinohara Kensuke
    Triendl Reina as Ono Yumika
    Suzuki Rio as Asahina Koharu
    Mikami Kensei as Sugisaki Yuki
    Kobayashi Kika (小 林 喜 日 ) as young Yuki
    Takizawa Saori as Shinohara Kumiko
    Nishimura Kazuhiko as Sato Nishiki
    Kubota Maki as Sato Yoko
    Matsushima Hana as Asahina Koyuki
    Shuri as Machii Risa
    Nagaike Natsuko as Imai Kanako
    Kido Yuya as Kato Teppei
    Tanigawa Risako as Sato Sayaka
    Ishida Tosei (石 田 登 星 ) as Sugisaki Seiichiro
    Tanoue Yui (田 上 唯 ) as Shimizu Kaori
    Inoue Hazuki as young Kaori
    Yokoyama Ayumu (横 山 歩 ) as Shinohara Kenta
    Fujiki Naohito as Yanagi Chikara
    Miho Jun as Tanaka Masayo
    Mizuno Miki as Seki Megumi
    Asano Atsuko as Sugisaki Fumiko

    Guests
    Nakagoshi Noriko as Mori Satomi (ep1,10)
    Hayashida Yuusaku (林 田 悠 作 ) as Mori Kaito (ep1,10)
    Adachi Yumi as Sasaki Marie (ep2)
    Suda Rio as Sasaki Yui (ep2)
    Yada Akiko as Ohashi Hanae (ep3)
    Kosuge Shiori (小 菅 汐 梨 ) as Ohashi Himeka (ep3)
    Sato Hitomi as Kitahara Maiko (ep3-4)
    Suda Eito as Kitahara Shoma (ep4)
    Kato Eito (加 藤 瑛 斗 ) as Kitahara Takuya (ep4)
    Abe Shohei (阿 部 翔 平 ) as Kitahara Hidefumi (ep4)
    Ayabe Yuji as Ito Keiji (ep5)

    General
    Complete name : D:37.5ฐ C no Namida (Completed)375C no Namida EP01 720p HDTV.mp4
    Format : MPEG-4
    Format profile : Base Media
    Codec ID : isom
    File size :
    Duration :
    Overall bit rate mode : Variable
    Overall bit rate : 2 443 Kbps
    Encoded date : UTC 2015-07-30 19:38:26
    Tagged date : UTC 2015-07-30 19:38:26

    Video
    ID : 1
    Format : AVC
    Format/Info : Advanced Video Codec
    Format profile : [email protected]
    Format settings, CABAC : Yes
    Format settings, ReFrames : 4 frames
    Codec ID : avc1
    Codec ID/Info : Advanced Video Coding
    Duration : 58mn 20s
    Bit rate : 2 357 Kbps
    Maximum bit rate : 16.6 Mbps
    Width : 1 280 pixels
    Height : 720 pixels
    Display aspect ratio : 16:9
    Frame rate mode : Constant
    Frame rate : 29.970 fps
    Color space : YUV
    Chroma subsampling : 4:2:0
    Bit depth : 8 bits
    Scan type : Progressive
    Bits/(Pixel*Frame) : 0.085
    Stream size : 984 MiB (96%)
    Title : Video
    Writing library : x264 core 146 r2538 121396c
    Encoding settings : cabac=1 / ref=3 / deblock=1:0:0 / analyse=0x3:0x113 / me=hex / subme=7 / psy=1 / psy_rd=1.00:0.00 / mixed_ref=1 / me_range=16 / chroma_me=1 / trellis=1 / 8x8dct=1 / cqm=0 / deadzone=21,11 / fast_pskip=1 / chroma_qp_offset=-2 / threads=6 / lookahead_threads=1 / sliced_threads=0 / nr=0 / decimate=1 / interlaced=0 / bluray_compat=0 / constrained_intra=0 / bframes=3 / b_pyramid=2 / b_adapt=1 / b_bias=0 / direct=1 / weightb=1 / open_gop=0 / weightp=2 / keyint=250 / keyint_min=25 / scenecut=40 / intra_refresh=0 / rc_lookahead=40 / rc=crf / mbtree=1 / crf=20.0 / qcomp=0.60 / qpmin=0 / qpmax=69 / qpstep=4 / ip_ratio=1.40 / aq=1:1.00
    Encoded date : UTC 2015-07-30 19:38:26
    Tagged date : UTC 2015-07-30 19:40:37

    Audio
    ID : 2
    Format : AAC
    Format/Info : Advanced Audio Codec
    Format profile : LC
    Codec ID : 40
    Duration : 58mn 20s
    Bit rate mode : Variable
    Bit rate : 81.7 Kbps
    Maximum bit rate : 112 Kbps
    Channel(s) : 2 channels
    Channel positions : Front: L R
    Sampling rate : 48.0 KHz
    Compression mode : Lossy
    Delay relative to video : 67ms
    Stream size : 34.1 MiB (3%)
    Title :
    Encoded date : UTC 2015-07-30 17:27:44
    Tagged date : UTC 2015-07-30 19:40:37


    1
    http://www.mekafile.com/dl.php?f=ZA1354b8tyy4
    2
    http://www.mekafile.com/dl.php?f=mw9124b8tyDn
    3
    http://www.mekafile.com/dl.php?f=ZJd414b8tyK2
    4
    http://www.mekafile.com/dl.php?f=ORb37bb8tyRg
    5
    http://www.mekafile.com/dl.php?f=EBab34b8tyXA
    6
    http://www.mekafile.com/dl.php?f=t99250b8tz4m
    7
    http://www.mekafile.com/dl.php?f=Sfee4cb8tzbf
    8
    http://www.mekafile.com/dl.php?f=u32870b8tziO
    9
    http://www.mekafile.com/dl.php?f=BY63bfb8tzoz
    10
    http://www.mekafile.com/dl.php?f=f3a633b8tzvs

  2. The Following User Says Thank You to Duckload.us For This Useful Post:

    tpornpak (03-10-2016)

+ ตอบกลับกระทู้

ข้อมูลกระทู้

Users Browsing this Thread

ในขณะนี้มี 1 ท่านดูกระทู้อยู่. (0 สมาชิกและ 1 ผู้เยี่ยมชม)

     

กฎการโพสต์ข้อความ

  • ท่าน ไม่สามารถ ตั้งกระทู้ใหม่ได้
  • ท่าน ไม่สามารถ ตอบกระทู้ได้
  • ท่าน ไม่สามารถ แนบไฟล์ได้
  • ท่าน ไม่สามารถ แก้ไขข้อความโพสต์ได้
  • BB code สถานะ เปิด
  • Smilies สถานะ เปิด
  • [IMG] สถานะ เปิด
  • HTML สถานะ ปิด