+ ตอบกลับกระทู้
สรุปผลการค้นหา 1 ถึง 4 จากทั้งหมด 4
  1. #1
    Administrators รูปส่วนตัว Duckload.us
    สมัครเมื่อ
    Dec 2010
    โพสต์
    114,515
    Thanks
    7
    Thanked 120,852 Times in 54,337 Posts

    Question [ฝรั่ง]-ใหม่[* เล็กพริกขี้หนู 1080p Super HQ *] The Witch (2015) : อาถรรพ์แม่มดโบราณ -CtHts. [ เสียงอังกฤษ DTS @ZEZA ][บรรยายไทย มาสเตอร์ + อังกฤษ][ ซับไทย From MASTER ]-[Soundtrack บรรยายไทย]




    wrote:

    เรื่องราวของแม่มดและเวทมนตร์ไม่เคยหายไปจากวงการภาพ ยนตร์
    เตรียมพบกับเหตุการณ์สุดสะพรึงครั้งใหม่ใน The Witch ภาพยนตร์ระทึกขวัญที่คว้ารางวัลผู้กำกับยอดเยี่ยมจาก เทศกาลภาพยนตร์ซันแดนซ์ มาแล้ว
    และได้รับคะแนนจากนักวิจารณ์ทางเว็บไซด์ Rottentomatoes ถึง 90 เปอร์เซ็นต์
    .
    .
    ย้อนกลับไปในยุคทศวรรษ 1630 เมื่อครอบครัวผู้อพยพชาวอังกฤษครอบครัวหนึ่งถูกคุกคา มและขับไล่ออกจากชุมชนโดยคริสตจักร
    พวกเขาย้ายไปตั้งถิ่นฐานในเขตชายป่าในนิวอิงแลนด์ ที่ซึ่งว่ากันว่ามีปีศาจร้ายสิงสถิตอยู่ และเหตุการณ์ผิดปกติก็เริ่มเกิดขึ้น ฝูงสัตว์เกิดอาการคุ้มคลั่ง
    การปลูกพืชพันธุ์ไม่ได้ผล นอกจากนี้ ลูกชายคนเล็กได้หายตัวไป และลูกชายอีกคนเกิดอาการเหมือนถูกผีสิง
    สมาชิกในครอบครัวเริ่มสงสัยว่าลูกสาวคนโตอาจมีส่วนกั บเหตุการณ์ไม่ปกติที่เกิดขึ้น!!!


    wrote:

    Format : Matroska
    File size : 3.61 GiB
    Duration : 1h 32mn
    Overall bit rate : 5 584 Kbps
    Movie name : {MINI Super-HQ}[email protected] tHts

    Video
    ID : 1
    Format : AVC
    Format/Info : Advanced Video Codec
    Format profile : [email protected]
    Format settings, CABAC : Yes
    Format settings, ReFrames : 4 frames
    Codec ID : V_MPEG4/ISO/AVC
    Duration : 1h 32mn
    Bit rate : 4 748 Kbps
    Width : 1 920 pixels
    Height : 1 156 pixels
    Display aspect ratio : 1.661
    Frame rate mode : Constant
    Frame rate : 23.976 fps
    Color space : YUV
    Chroma subsampling : 4:2:0
    Bit depth : 8 bits
    Scan type : Progressive
    Bits/(Pixel*Frame) : 0.089
    Stream size : 3.05 GiB (84%)
    Title : {MINI Super-HQ}[email protected] tHts
    Writing library : x264 core
    Encoding settings : cabac=1 / ref=3 / deblock=1:0:0 / analyse=0x3:0x113 / me=umh / subme=11 / psy=1 / psy_rd=1.00:0.00 / mixed_ref=1 / me_range=48 / chroma_me=1 / trellis=2 / 8x8dct=1 / cqm=0 / deadzone=21,11 / fast_pskip=1 / chroma_qp_offset=-2 / threads=10 / lookahead_threads=1 / sliced_threads=0 / nr=0 / decimate=1 / interlaced=0 / bluray_compat=0 / constrained_intra=0 / bframes=3 / b_pyramid=2 / b_adapt=1 / b_bias=0 / direct=1 / weightb=1 / open_gop=0 / weightp=2 / keyint=240 / keyint_min=24 / scenecut=40 / intra_refresh=0 / rc_lookahead=40 / rc=2pass / mbtree=1 / bitrate=4748 / ratetol=1.0 / qcomp=0.60 / qpmin=0 / qpmax=69 / qpstep=4 / cplxblur=20.0 / qblur=0.5 / ip_ratio=1.40 / aq=1:1.00
    Language : English
    Default : Yes
    Forced : No

    Audio
    ID : 2
    Format : DTS
    Format/Info : Digital Theater Systems
    Mode : 16
    Format settings, Endianness : Big
    Codec ID : A_DTS
    Duration : 1h 32mn
    Bit rate mode : Constant
    Bit rate : 755 Kbps
    Channel(s) : 6 channels
    Channel positions : Front: L C R, Side: L R, LFE
    Sampling rate : 48.0 KHz
    Bit depth : 24 bits
    Compression mode : Lossy
    Stream size : 499 MiB (14%)
    Title : English DTS
    Language : English
    Default : No
    Forced : No

    Text #1
    ID : 3
    Format : VobSub
    Codec ID : S_VOBSUB
    Codec ID/Info : The same subtitle format used on DVDs
    Title : Thai 480p From DVD Master
    Language : Thai
    Default : No
    Forced : No

    Text #2
    ID : 4
    Format : VobSub
    Codec ID : S_VOBSUB
    Codec ID/Info : The same subtitle format used on DVDs
    Title : Thai 720p
    Language : Thai
    Default : No
    Forced : No

    Text #3
    ID : 5
    Format : VobSub
    Codec ID : S_VOBSUB
    Codec ID/Info : The same subtitle format used on DVDs
    Title : Thai 1080p
    Language : Thai
    Default : Yes
    Forced : Yes

    Text #4
    ID : 6
    Format : VobSub
    Codec ID : S_VOBSUB
    Codec ID/Info : The same subtitle format used on DVDs
    Title : Thai 1080p Yellow
    Language : Thai
    Default : No
    Forced : No

    Text #5
    ID : 7
    Format : VobSub
    Codec ID : S_VOBSUB
    Codec ID/Info : The same subtitle format used on DVDs
    Title : Thai 1080p BIG
    Language : Thai
    Default : No
    Forced : No

    Text #6
    ID : 8
    Format : PGS
    Codec ID : S_HDMV/PGS
    Codec ID/Info : The same subtitle format used on BDs/HD-DVDs
    Title : Thai PGS
    Language : Thai
    Default : No
    Forced : No

    Text #7
    ID : 9
    Format : PGS
    Codec ID : S_HDMV/PGS
    Codec ID/Info : The same subtitle format used on BDs/HD-DVDs
    Title : Thai PGS Yellow
    Language : Thai
    Default : No
    Forced : No

    Text #8
    ID : 10
    Format : UTF-8
    Codec ID : S_TEXT/UTF8
    Codec ID/Info : UTF-8 Plain Text
    Title : English
    Language : English
    Default : No
    Forced : No


    wrote:

    SS แค๊ปจากตัวไฟล์ ค่ะ











    ส่งมอบ โดย : NongZEZA




    http://www.mekafile.com/dl.php?f=WS9132bdda0A

    http://cornfile.com/ktk5bemzh52y fix

  2. The Following 6 Users Say Thank You to Duckload.us For This Useful Post:

    B-Faii (08-07-2016), beer181235 (07-03-2016), beerdum (07-03-2016), inutero (07-04-2016), prasert.pp (07-04-2016), Visit (07-03-2016)

  3. #2
    Senior Member รูปส่วนตัว B-Faii
    สมัครเมื่อ
    Oct 2012
    ที่อยู่
    THAILAND
    โพสต์
    1,223
    Thanks
    1,405
    Thanked 0 Times in 0 Posts
    ขอบคุณมากๆเลยจ้าาา

  4. #3

  5. #4
    Administrators รูปส่วนตัว Duckload.us
    สมัครเมื่อ
    Dec 2010
    โพสต์
    114,515
    Thanks
    7
    Thanked 120,852 Times in 54,337 Posts
    ReUpLoad

+ ตอบกลับกระทู้

ข้อมูลกระทู้

Users Browsing this Thread

ในขณะนี้มี 1 ท่านดูกระทู้อยู่. (0 สมาชิกและ 1 ผู้เยี่ยมชม)

     

กฎการโพสต์ข้อความ

  • ท่าน ไม่สามารถ ตั้งกระทู้ใหม่ได้
  • ท่าน ไม่สามารถ ตอบกระทู้ได้
  • ท่าน ไม่สามารถ แนบไฟล์ได้
  • ท่าน ไม่สามารถ แก้ไขข้อความโพสต์ได้
  • BB code สถานะ เปิด
  • Smilies สถานะ เปิด
  • [IMG] สถานะ เปิด
  • HTML สถานะ ปิด