+ ตอบกลับกระทู้
สรุปผลการค้นหา 1 ถึง 2 จากทั้งหมด 2
  1. #1
    Administrators รูปส่วนตัว Duckload.us
    สมัครเมื่อ
    Dec 2010
    โพสต์
    129,665
    Thanks
    7
    Thanked 133,637 Times in 59,173 Posts

    Exclamation [ญี่ปุ่น]-Crying Freeman anime น้ำตาเพชรฆาต 1988 [720x480p DVDซับไทย 3 แผ่น 6 ตอน จบ]-[DVD5] [Master]-[Soundtrack บรรยายไทย]





    เรื่องย่อ
    น้ำตาเพชฌฆาต เรื่องราวของลูกชายแห่งมังกร เขาคือเพชฌฆาตนักรบจีนโบราณที่ถูกเลือกให้เป็น “เดอะฟรีแมน” “โย” นักฆ่าแห่งองค์การ 108 มังกร องค์การอาชญากรรมลึกลับ เขาจะหลั่งน้ำตาทุกครั้งที่ฆ่าเหยื่อของเขา ซึ่งมันกลั่นออกจากวิญญาณของศิลปินผู้โดดเดี่ยว ความเจ็บปวดต่อสิ่งโหดร้ายอันเกิดจากการกระทำของเขา และ “เอมู” คือหญิงสาวผู้ซึ่งทำให้เขาไม่ใช่แค่มีชีวิตอยู่เพื่อ การฆ่า เธอยังตกเป็นเหยื่อที่เขาต้องฆ่ารายต่อไปตามกฎ เพราะเธอเป็นบุคคลเดียวที่เห็นใบหน้าของเขา นั่นคือจุดเริ่มต้นของความรักที่เกิดจากความโหดร้าย โยต้องเผชิญกับรักที่ต้องต่อสู่อยู่ท่ามกลางความโหดเ หี้ยม ความจงรักภักดี และประเพณีโบราณ…



    Video
    ID : 224 (0xE0)
    Format : MPEG Video
    Format version : Version 2
    Format profile : [email protected]
    Format settings, BVOP : Yes
    Format settings, Matrix : Custom
    Format settings, GOP : M=3, N=15
    Format settings, picture st : Frame
    Duration : 25mn 23s
    Bit rate mode : Variable
    Bit rate : 4 132 Kbps
    Maximum bit rate : 8 000 Kbps
    Width : 720 pixels
    Height : 480 pixels
    Display aspect ratio : 4:3
    Frame rate : 29.970 (30000/1001) fps
    Standard : NTSC
    Color space : YUV
    Chroma subsampling : 4:2:0
    Bit depth : 8 bits
    Scan type : Interlaced
    Scan order : Top Field First
    Compression mode : Lossy
    Bits/(Pixel*Frame) : 0.399
    Time code of first frame : 00:00:31:18
    Time code source : Group of pictures header
    GOP, Open/Closed : Closed
    Stream size : 750 MiB (73%)

    Audio #1
    ID : 189 (0xBD)-128 (0x80)
    Format : AC-3
    Format/Info : Audio Coding 3
    Mode extension : CM (complete main)
    Format settings, Endianness : Big
    Muxing mode : DVD-Video
    Duration : 25mn 23s
    Bit rate mode : Constant
    Bit rate : 448 Kbps
    Channel(s) : 6 channels
    Channel positions : Front: L C R, Side: L R, LFE
    Sampling rate : 48.0 KHz
    Frame rate : 31.250 fps (1536 spf)
    Compression mode : Lossy
    Stream size : 81.3 MiB (8%)

    Audio #2
    ID : 189 (0xBD)-129 (0x81)
    Format : AC-3
    Format/Info : Audio Coding 3
    Mode extension : CM (complete main)
    Format settings, Endianness : Big
    Muxing mode : DVD-Video
    Duration : 25mn 23s
    Bit rate mode : Constant
    Bit rate : 192 Kbps
    Channel(s) : 2 channels
    Channel positions : Front: L R
    Sampling rate : 48.0 KHz
    Frame rate : 31.250 fps (1536 spf)
    Compression mode : Lossy
    Stream size : 34.9 MiB (3%)

    Audio #3
    ID : 189 (0xBD)-138 (0x8A)
    Format : DTS
    Format/Info : Digital Theater Systems
    Mode : 16
    Format settings, Endianness : Big
    Muxing mode : DVD-Video
    Duration : 25mn 23s
    Bit rate mode : Constant
    Bit rate : 755 Kbps
    Channel(s) : 6 channels
    Channel positions : Front: L C R, Side: L R, LFE
    Sampling rate : 48.0 KHz
    Frame rate : 93.750 fps (512 spf)
    Bit depth : 24 bits
    Compression mode : Lossy
    Stream size : 137 MiB (13%)

    Text #1
    ID : 189 (0xBD)-32 (0x20)
    Format : RLE
    Format/Info : Run-length encoding
    Muxing mode : DVD-Video
    Language : English

    Text #2
    ID : 189 (0xBD)-33 (0x21)
    Format : RLE
    Format/Info : Run-length encoding
    Muxing mode : DVD-Video
    Language : chinese

    Text #3
    ID : 189 (0xBD)-34 (0x22)
    Format : RLE
    Format/Info : Run-length encoding
    Muxing mode : DVD-Video
    Language : Malay

    Text #4
    ID : 189 (0xBD)-35 (0x23)
    Format : RLE
    Format/Info : Run-length encoding
    Muxing mode : DVD-Video
    Language : Thai


    http://www.filecondo.com/dl.php?f=ne9d14bjlNqp

  2. The Following User Says Thank You to Duckload.us For This Useful Post:

    inutero (12-01-2016)

  3. #2
    Junior Member
    สมัครเมื่อ
    Apr 2014
    โพสต์
    2
    Thanks
    0
    Thanked 0 Times in 0 Posts
    ขอโทษนะ ครับ เข้าเว็บโหลด ไม่ได้ ช่วยแก้ไข ให้หน่อย อยากดู

+ ตอบกลับกระทู้

ข้อมูลกระทู้

Users Browsing this Thread

ในขณะนี้มี 1 ท่านดูกระทู้อยู่. (0 สมาชิกและ 1 ผู้เยี่ยมชม)

     

กฎการโพสต์ข้อความ

  • ท่าน ไม่สามารถ ตั้งกระทู้ใหม่ได้
  • ท่าน ไม่สามารถ ตอบกระทู้ได้
  • ท่าน ไม่สามารถ แนบไฟล์ได้
  • ท่าน ไม่สามารถ แก้ไขข้อความโพสต์ได้
  • BB code สถานะ เปิด
  • Smilies สถานะ เปิด
  • [IMG] สถานะ เปิด
  • HTML สถานะ ปิด