+ ตอบกลับกระทู้
สรุปผลการค้นหา 1 ถึง 3 จากทั้งหมด 3
  1. #1
    Administrators รูปส่วนตัว Duckload.us
    สมัครเมื่อ
    Dec 2010
    โพสต์
    125,078
    Thanks
    7
    Thanked 130,059 Times in 57,675 Posts

    Angry [ฝรั่ง]-OBLIVION อุบัติการณ์โลกลืม 2013 4K UltraHD.BluRay.2160p.HEVC.BT2020.DTS-HD MA 7.1 ภาพชัดจัดเต็มบิทเรท 60.1 Mb/s พร้อมระบบภาพ HDR (x265 HEVC 10bit)-[พากย์ไทย บรรยายไทย]




    เรืองย่อ
    แจ็คกำลังพิสูจน์เตือน เปล่ามีการโยกย้ายสัตว์สองเท้ามนุษยโลกเดินทางดาวฤกษ ์อิสระทั่นแน่แท้ (เดือนพื้นที่ฉวัดเฉวียนรอบดาราดาวเสาร์) จนตราบใดคีรีแซะกลักปลูกข้าวแหล่งรายงานงานโผบินข้าว ของเครื่องใช้ยานอวกาศเนื้อที่เอาใจใส่จูเลียกับกะลา สีตกลงปลงใจมาสู่ คีรีก็รำลึกคดีหาได้บัดนั้นเหมา เมื่อ 60 ปีกลาย (ศก 2017) แจ็ค จูเลีย วิคก้าและมานพอื่นๆ ชอบทุ่งนาซ่าส่งมาหาดำเนินการภาระหน้าที่เมื่อเขื่อง นั่นคือยืด Teth ถิ่นโจมตีมาสู่พิภพ โดยที่ในเวลานั้นแจ็คหมายความว่ากัปตันหย่อน วิคก้าเพิ่งตื่นพระบรรทม จูเลียพร้อมด้วยกะลาสีขาอื่นๆเสด็จที่ภาวะนิทราใหล จนตราบยานอวกาศจวนเจียนเข้าไปเที่ยวไปอาบัน Teth แจ๊คเข้ากับวิคก้าก็อึทัศนียภาพข้างเพราะว่าดำรงฐานะ เรื่องเก่าแก่เหล่างานพิธี ซึ่งในที่ในเวลานั้นเขาก็ติดต่อสื่อสารกับดัก แซลลี่ บริเวณบริหารกิจธุระทั้งเป็นผู้ผนึกกิจธุระสิ่ง NASA สึงเนื่องด้วย Oblivion ก่อนที่ดินหย่อนยานจะเข้ามาไปสู่ Teth แจ็คตัดสินใจให้ความเป็นไทกะลาสีที่ทางหลับไหลใหลกั้ นพลัดเกียดกันกลับคืนสู่พื้นแผ่นดิน พร้อมด้วยกำนัลร่างสิงขรกับข้าววิคก้าพบกับมนุษย์ต่า งดาว ผลลัพท์ย่านหาได้ หมายถวายทรรศนะเตือน แจ็คพร้อมกับวิคก้าอวัยวะเป็นแน่แท้นั้น อาจหาญจักถึงอนิจกรรมคลาไคลจบ มนุษย์ต่างดาวก็บุกรุกโลกมนุษย์ โดยงานโจมตีโสม เมื่อพื้นพิภพมิมีระจันทร์ ก็ส่งดอกผลประทานโลกมนุษย์กระผมเสด็จพระราชสมภพภาวกา รณ์แปรผันถนนสภาพอากาศราว น้ำทะเลแห่งจะกอบด้วยน้ำขึ้น น้ำลงก็เปล่าประกอบด้วย น่าฟังพร่องการดูแลดำเนินเดือน จนถึงเสวยพระชาติมีชีวิตสึไร่นามิสับเปลี่ยน พร้อมกับอื่นๆอีกดาษดื่นแดนพื้นพิภพดีฉันจำเป็นพึ่งจ ันทร์ เมื่อแผ่นดินมีขึ้นสถานการณ์รุนแรง Teth แล้วก็ดำเนินการการทำศึกกับข้าวปุถุชนมนุษยโลกพร้อมด ้วยฉกการชนะ ครั้งยึดวัฏสงสารได้รับจบ ก็จัดทำการดูดกลืนทรัพยากรโลกาคือ “อุทก” โดยยกขึ้นเป้าต่อว่าจะยักย้ายถ่ายเทคลอดผละโลกมนุษย์ ขณะดูดดึงน้ำเค็มจนแต้มขาดมือ จึงได้มาตมหยุดนิ่งแจ็ค กับดักวิคก้ามานักตัวตน เพื่อให้ประจำที่อยู่พื้นแผ่นดิน “Oblivion” กับจัดการกิจเก็บกวาดทุกสิ่ง วิภาคแซลลี่ก็เปลี่ยนแปลงดำรงฐานะโปรแกรมโทรที่อยู่บ ัญชาทิ้ง Teth นั่นเอง ส่วนจูเลียพร้อมทั้งกะลาสี ก็รุนพึ่งลงมาทั้งๆ ที่ภพ หลังจากลอย+นิทราใหลมีอยู่ข้างในต่างดาวช้านานอาบัน 60 ศักราช จุดนี้เอง ที่ทางบำเพ็ญจ่ายแจ็คแตะต้องค้นเหมา “สมมติว่ามานพชนะสงคราม เพื่ออะไรข้าพเจ้าจำเป็นจะต้องโยกย้าย” อีกเหตุเอ็ดตกว่า แจ็คไม่เลื่อมใสติเตียน พื้นพิภพเปล่าเป็นได้ปรับปรุงได้รับ ทั้งนี้เพราะไม้ใหญ่แดนไศลปลูกสร้างแล้วไปเอามาแจกวิ คก้านั้น ก็เจริญวัยหาได้ แถมจวนตอนกลางพงไพรภูเขา ก็อีกทั้งดก กอบด้วยตลอดพืชพันธุ์ใบต้นหญ้า น้ำดื่มก็โจ๋งเจ๋งดื่มได้ มีมัศยาอีกเกี่ยวกับ

    รายละเอียด


    File size : 57.1 GiB
    Duration : 2 h 4 min
    Overall bit rate : 65.6 Mb/s
    Encoded date : UTC 2017-03-05 18:23:36
    Writing application : mkvmerge v9.9.0 ( Pick Up ) 64bit
    Writing library : libebml v1.3.4 + libmatroska v1.4.5

    Video
    ID : 1
    Format : HEVC
    Format/Info : High Efficiency Video Coding
    Format profile : Main [email protected]@High
    Codec ID : V_MPEGH/ISO/HEVC
    Duration : 2 h 4 min
    Bit rate : 60.1 Mb/s
    Width : 3 840 pixels
    Height : 2 160 pixels
    Display aspect ratio : 16:9
    Frame rate mode : Constant
    Frame rate : 23.976 (24000/1001) FPS
    Color space : YUV
    Chroma subsampling : 4:2:0 (Type 1)
    Bit depth : 10 bits
    Bits/(Pixel*Frame) : 0.302
    Stream size : 52.3 GiB (92%)
    Writing library : x265 2.0+18-b0ec268aef60:[Windows][GCC 6.1.0][64 bit] 10bit

    Default : Yes
    Forced : No
    Color range : Limited
    Color primaries : BT.2020
    Transfer characteristics : SMPTE ST 2084
    Matrix coefficients : BT.2020 non-constant


    Audio #1
    ID : 2
    Format : DTS
    Format/Info : Digital Theater Systems
    Format profile : MA / Core
    Mode : 16
    Format settings, Endianness : Big
    Codec ID : A_DTS
    Duration : 2 h 4 min
    Bit rate mode : Variable / Constant
    Bit rate : 5 033 kb/s / 1 509 kb/s
    Channel(s) : 8 channels / 6 channels
    Channel positions : Front: L C R, Side: L R, Back: L R, LFE / Front: L C R, Side: L R, LFE
    Sampling rate : 48.0 kHz
    Frame rate : 93.750 FPS (512 spf)
    Bit depth : 24 bits
    Compression mode : Lossless / Lossy
    Delay relative to video : 2 s 500 ms
    Stream size : 4.38 GiB (8%)
    Language : English
    Default : Yes
    Forced : No

    Audio #2
    ID : 3
    Format : AC-3
    Format/Info : Audio Coding 3
    Mode extension : CM (complete main)
    Format settings, Endianness : Big
    Codec ID : A_AC3
    Duration : 2 h 4 min
    Bit rate mode : Constant
    Bit rate : 448 kb/s
    Channel(s) : 6 channels
    Channel positions : Front: L C R, Side: L R, LFE
    Sampling rate : 48.0 kHz
    Frame rate : 31.250 FPS (1536 spf)
    Bit depth : 16 bits
    Compression mode : Lossy
    Delay relative to video : 2 s 700 ms
    Stream size : 400 MiB (1%)
    Title : Thai BluRay Master
    Language : Thai
    Default : No
    Forced : Yes

    Text #1
    ID : 4
    Format : VobSub
    Muxing mode : zlib
    Codec ID : S_VOBSUB
    Codec ID/Info : Picture based subtitle format used on DVDs
    Duration : 2 h 3 min
    Bit rate : 2 596 b/s
    Count of elements : 952
    Stream size : 2.30 MiB (0%)
    Title : Thai 1080p BluRay Master
    Language : Thai
    Default : Yes
    Forced : Yes

    Text #2
    ID : 5
    Format : PGS
    Muxing mode : zlib
    Codec ID : S_HDMV/PGS
    Codec ID/Info : Picture based subtitle format used on BDs/HD-DVDs
    Duration : 2 h 3 min
    Bit rate : 5 312 b/s
    Count of elements : 1904
    Stream size : 4.71 MiB (0%)
    Title : Thai PGS BluRay Master
    Language : Thai
    Default : No
    Forced : No

    Text #3
    ID : 6
    Format : VobSub
    Muxing mode : zlib
    Codec ID : S_VOBSUB
    Codec ID/Info : Picture based subtitle format used on DVDs
    Duration : 1 h 57 min
    Bit rate : 3 344 b/s
    Count of elements : 1026
    Stream size : 2.81 MiB (0%)
    Title : English
    Language : English
    Default : No
    Forced : No


    http://cornfile.com/p1oros3hcd7i

  2. #2
    Senior Member
    สมัครเมื่อ
    Apr 2017
    โพสต์
    325
    Thanks
    1
    Thanked 1 Time in 1 Post
    รบกวนช่วยอัพmakafile รายการนีัให้ด้วยครับท่านDuck!!!!!!ขอบคุณครับ!!!!

  3. #3
    Senior Member
    สมัครเมื่อ
    Jun 2014
    โพสต์
    5,288
    Thanks
    0
    Thanked 0 Times in 0 Posts
    ขอบคุณครับ

+ ตอบกลับกระทู้

ข้อมูลกระทู้

Users Browsing this Thread

ในขณะนี้มี 1 ท่านดูกระทู้อยู่. (0 สมาชิกและ 1 ผู้เยี่ยมชม)

     

กฎการโพสต์ข้อความ

  • ท่าน ไม่สามารถ ตั้งกระทู้ใหม่ได้
  • ท่าน ไม่สามารถ ตอบกระทู้ได้
  • ท่าน ไม่สามารถ แนบไฟล์ได้
  • ท่าน ไม่สามารถ แก้ไขข้อความโพสต์ได้
  • BB code สถานะ เปิด
  • Smilies สถานะ เปิด
  • [IMG] สถานะ เปิด
  • HTML สถานะ ปิด