+ ตอบกลับกระทู้
สรุปผลการค้นหา 1 ถึง 4 จากทั้งหมด 4
  1. #1
    Administrators รูปส่วนตัว Duckload.us
    สมัครเมื่อ
    Dec 2010
    โพสต์
    116,052
    Thanks
    7
    Thanked 122,467 Times in 54,944 Posts

    Lightbulb [ฝรั่ง]-Game of Thrones (2013) [Season 3 - EP.1~10End] [English DTS 5.1]-[บรรยาย TH+EN PGS From BluRay MASTER]-Encode.H.264.1080p. [Hi-def rip from Master]-[Soundtrack บรรยายไทย]



    Season 3, Episodes 1-10

    01: Valar Dohaeris
    02: Dark Wings, Dark Words
    03: Walk of Punishment
    04: And Now His Watch Is Ended
    05: Kissed by Fire
    06: The Climb
    07: The Bear and the Maiden Fair
    08: Second Sons
    09: The Rains of Castamere
    10: Mhysa


    MediaInfo

    Format : Matroska
    File size : 1.63 GiB
    Duration : 54mn 31s
    Overall bit rate : 4 279 Kbps
    Movie name : Game.of.Thrones.S3E01.Valar.Dohaeris.1080p.BrRip.x 264_by FIANoTK

    Video
    Format : AVC
    Format/Info : Advanced Video Codec
    Format settings, ReFrames : 4 frames
    Duration : 54mn 31s
    Bit rate : 3 500 Kbps
    Width : 1 920 pixels
    Height : 1 080 pixels
    Display aspect ratio : 16:9
    Bits/(Pixel*Frame) : 0.070
    Stream size : 1.31 GiB (80%)
    Title : Game.of.Thrones.S3E01.Valar.Dohaeris.1080p.BrRip.x 264_by FIANoTK
    Writing library : x264 core 142 r2479 dd79a61
    Encoding settings : cabac=1 / ref=4 / deblock=1:0:0 / analyse=0x3:0x133 / me=umh / subme=9 / psy=1 / psy_rd=1.00:0.00 / mixed_ref=1 / me_range=16 / chroma_me=1 / trellis=2 / 8x8dct=1 / cqm=0 / deadzone=21,11 / fast_pskip=1 / chroma_qp_offset=-2 / threads=12 / lookahead_threads=1 / sliced_threads=0 / nr=0 / decimate=1 / interlaced=0 / bluray_compat=0 / constrained_intra=0 / bframes=4 / b_pyramid=2 / b_adapt=1 / b_bias=0 / direct=1 / weightb=1 / open_gop=0 / weightp=2 / keyint=240 / keyint_min=24 / scenecut=40 / intra_refresh=0 / rc_lookahead=40 / rc=2pass / mbtree=1 / bitrate=3500 / ratetol=1.0 / qcomp=0.60 / qpmin=0 / qpmax=69 / qpstep=4 / cplxblur=20.0 / qblur=0.5 / ip_ratio=1.40 / aq=1:1.00
    Default : Yes
    Forced : No

    Audio
    ID : 2
    Format : DTS
    Format/Info : Digital Theater Systems
    Codec ID : A_DTS
    Duration : 54mn 31s
    Bit rate : 755 Kbps
    Channel(s) : 6 channels
    Channel positions : Front: L C R, Side: L R, LFE
    Sampling rate : 48.0 KHz
    Bit depth : 24 bits
    Compression mode : Lossy
    Stream size : 294 MiB (18%)
    Title : English DTS 5.1 @755 Kbps
    Language : English
    Default : Yes
    Forced : No

    Text #1
    ID : 3
    Format : PGS
    Muxing mode : zlib
    Codec ID : S_HDMV/PGS
    Codec ID/Info : Picture based subtitle format used on BDs/HD-DVDs
    Title : Thai PGS
    Language : Thai
    Default : Yes
    Forced : No

    Text #2
    ID : 4
    Format : PGS
    Muxing mode : zlib
    Codec ID : S_HDMV/PGS
    Codec ID/Info : Picture based subtitle format used on BDs/HD-DVDs
    Title : English PGS
    Language : English
    Default : No
    Forced : No


    Screenshot



    1
    http://www.filecondo.com/dl.php?f=H18bc41CNk3z
    http://www.filecondo.com/dl.php?f=Vc12f11D0JiE fix
    2
    http://www.filecondo.com/dl.php?f=A40ead1CNk1O
    3
    http://www.filecondo.com/dl.php?f=W345561CNk3a
    4
    http://www.filecondo.com/dl.php?f=t9c03d1CNjY7
    5
    http://www.filecondo.com/dl.php?f=x83bbb1CNk53
    6
    http://www.filecondo.com/dl.php?f=yd4b3b1CNkfR
    http://www.filecondo.com/dl.php?f=f168141D0Jnv fix
    7
    http://www.filecondo.com/dl.php?f=la12651CNk50
    8
    http://www.filecondo.com/dl.php?f=I37f7f1CNkfC
    9
    http://www.filecondo.com/dl.php?f=Z75c7f1CNkdl
    10
    http://www.filecondo.com/dl.php?f=Ua957f1CNk86

  2. #2
    Junior Member รูปส่วนตัว lunachan
    สมัครเมื่อ
    Sep 2015
    โพสต์
    10
    Thanks
    0
    Thanked 0 Times in 0 Posts
    ขอบคุณมากค่ะ

  3. #3
    Junior Member
    สมัครเมื่อ
    Jun 2014
    โพสต์
    7
    Thanks
    0
    Thanked 0 Times in 0 Posts
    ตอน 3กับ4 เสียครับ

  4. #4
    Junior Member
    สมัครเมื่อ
    Dec 2013
    โพสต์
    5
    Thanks
    0
    Thanked 0 Times in 0 Posts
    ตอนที่ 3, 4, 9 เสียครับ

+ ตอบกลับกระทู้

ข้อมูลกระทู้

Users Browsing this Thread

ในขณะนี้มี 1 ท่านดูกระทู้อยู่. (0 สมาชิกและ 1 ผู้เยี่ยมชม)

     

กฎการโพสต์ข้อความ

  • ท่าน ไม่สามารถ ตั้งกระทู้ใหม่ได้
  • ท่าน ไม่สามารถ ตอบกระทู้ได้
  • ท่าน ไม่สามารถ แนบไฟล์ได้
  • ท่าน ไม่สามารถ แก้ไขข้อความโพสต์ได้
  • BB code สถานะ เปิด
  • Smilies สถานะ เปิด
  • [IMG] สถานะ เปิด
  • HTML สถานะ ปิด