+ ตอบกลับกระทู้
สรุปผลการค้นหา 1 ถึง 1 จากทั้งหมด 1
  1. #1
    Administrators รูปส่วนตัว Duckload.us
    สมัครเมื่อ
    Dec 2010
    โพสต์
    111,439
    Thanks
    7
    Thanked 116,879 Times in 53,187 Posts

    Red face [ฝรั่ง]-Joe Versus the Volcano (1990) Weprip 1080p Soundtrack บรรยายไทย-HDTV.AC-3.1080p. [Modified]-[Soundtrack บรรยายไทย]


    Joe Versus the Volcano



    Rating: 5.7/10 Year: 1990 Genres: Comedy / Romance Runtime: 102 min Language: English Director: John Patrick Shanley Writers: n/A Cast: Tom Hanks / Meg Ryan / Lloyd Bridges Plot:

    When a hypochondriac learns that he is dying, he accepts an offer to throw himself in a volcano at a tropical island, and along the way there, learns to truly live.







    Joe Versus the Volcano (1990) บิ๊กโจภูเขาไฟ


    http://www.imdb.com/title/tt0099892/



    Quote:
    ทอม แฮงค์ส ซึ่งทำงานในแผนกโฆษณาของบริษัทหนึ่ง คิดว่าตัวเองป่วยหนักประกอบกับ
    หมอของเขาก็ดันวิเคราะห์ว่าเขาจะอยู่ได้อีกไม่เกิน 6 เดือน ยิ่งทำให้เขาคิดว่าชีวิตไม่มีความหวังแล้ว ก็เลยทำอะไรอย่างที่
    ตัวเองอยากทำแล้วเรื่องบังเอิญก็เกิดขึ้นเมื่อนักธุร กิจรายใหญ่รายหนึ่งผ่านเข้ามาในชีวิตของเขา

    ถือเป็นหนังตลกเสียดสีสังคมอุตสาหกรรมที่น่าสนใจเรื่ องหนึ่งแม้หลาย ๆ คน อาจจะไม่ชอบเพราะออกจะตลกร้ายเกินจริงไปบ้าง

    ที่มา นิตยสารผู้จัดการ











    General
    Unique ID : 191004960515105381067754439764749088942 (0x8FB237A0DBBFBBCA80A10EFEEA9878AE)
    Complete name : D:Torrent DownloadJoe Versus the Volcano (1990)Joe Versus the Volcano (1990).mkv
    Format : Matroska
    Format version : Version 4 / Version 2
    File size : 9.44 GiB
    Duration : 1 h 42 min
    Overall bit rate mode : Variable
    Overall bit rate : 13.2 Mb/s
    Movie name : Joe Versus The Volcano
    Encoded date : UTC 2016-09-13 23:26:45
    Writing application : mkvmerge v9.4.0 ( Knurl ) 64bit
    Writing library : libebml v1.3.4 + libmatroska v1.4.5

    Video
    ID : 1
    Format : AVC
    Format/Info : Advanced Video Codec
    Format profile : [email protected]
    Format settings, CABAC : Yes
    Format settings, ReFrames : 4 frames
    Codec ID : V_MPEG4/ISO/AVC
    Duration : 1 h 42 min
    Bit rate mode : Variable
    Bit rate : 13.0 Mb/s
    Maximum bit rate : 15.0 Mb/s
    Width : 1 920 pixels
    Height : 816 pixels
    Display aspect ratio : 2.35:1
    Frame rate mode : Constant
    Frame rate : 23.976 (24000/1001) FPS
    Color space : YUV
    Chroma subsampling : 4:2:0
    Bit depth : 8 bits
    Scan type : Progressive
    Bits/(Pixel*Frame) : 0.345
    Stream size : 9.23 GiB (98%)
    Title : Joe Versus The Volcano
    Writing library : x264 core 148 r2623 d5b2374
    Encoding settings : cabac=1 / ref=4 / deblock=1:-1:-1 / analyse=0x3:0x133 / me=umh / subme=9 / psy=1 / psy_rd=1.00:0.15 / mixed_ref=1 / me_range=24 / chroma_me=1 / trellis=2 / 8x8dct=1 / cqm=0 / deadzone=21,11 / fast_pskip=1 / chroma_qp_offset=-3 / threads=25 / lookahead_threads=4 / sliced_threads=0 / nr=150 / decimate=1 / interlaced=0 / bluray_compat=0 / constrained_intra=0 / bframes=8 / b_pyramid=2 / b_adapt=2 / b_bias=0 / direct=3 / weightb=1 / open_gop=0 / weightp=2 / keyint=120 / keyint_min=61 / scenecut=0 / intra_refresh=0 / rc_lookahead=120 / rc=crf / mbtree=1 / crf=18.0 / qcomp=0.60 / qpmin=0 / qpmax=69 / qpstep=4 / vbv_maxrate=15000 / vbv_bufsize=31250 / crf_max=0.0 / nal_hrd=vbr / filler=0 / ip_ratio=1.40 / aq=3:1.00
    Default : Yes
    Forced : No
    Color range : Limited
    Color primaries : BT.709
    Transfer characteristics : BT.709
    Matrix coefficients : BT.709

    Audio
    ID : 2
    Format : E-AC-3
    Format/Info : Enhanced Audio Coding 3
    Format settings, Endianness : Big
    Codec ID : A_EAC3
    Duration : 1 h 42 min
    Bit rate mode : Constant
    Bit rate : 224 kb/s
    Channel(s) : 2 channels
    Channel positions : Front: L R
    Sampling rate : 48.0 kHz
    Frame rate : 187.500 FPS (256 spf)
    Compression mode : Lossy
    Stream size : 164 MiB (2%)
    Title : English - AC3
    Language : English
    Service kind : Complete Main
    Default : Yes
    Forced : No

    Text #1
    ID : 3
    Format : PGS
    Codec ID : S_HDMV/PGS
    Codec ID/Info : Picture based subtitle format used on BDs/HD-DVDs
    Duration : 1 h 37 min
    Bit rate : 31.8 kb/s
    Count of elements : 2182
    Stream size : 22.2 MiB (0%)
    Title : Thai - PGS
    Language : Thai
    Default : Yes
    Forced : No

    Text #2
    ID : 4
    Format : PGS
    Codec ID : S_HDMV/PGS
    Codec ID/Info : Picture based subtitle format used on BDs/HD-DVDs
    Duration : 1 h 37 min
    Bit rate : 31.8 kb/s
    Count of elements : 2182
    Stream size : 22.2 MiB (0%)
    Title : Thai - PGS
    Language : Thai
    Default : No
    Forced : No

    Text #3
    ID : 5
    Format : UTF-8
    Codec ID : S_TEXT/UTF8
    Codec ID/Info : UTF-8 Plain Text
    Duration : 1 h 37 min
    Bit rate : 96 b/s
    Count of elements : 1091
    Stream size : 68.5 KiB (0%)
    Title : Thai - SRT
    Language : Thai
    Default : No
    Forced : No

    Text #4
    ID : 6
    Format : UTF-8
    Codec ID : S_TEXT/UTF8
    Codec ID/Info : UTF-8 Plain Text
    Duration : 1 h 38 min
    Bit rate : 58 b/s
    Count of elements : 1758
    Stream size : 42.3 KiB (0%)
    Title : English - SRT
    Language : English
    Default : No
    Forced : No

    Text #5
    ID : 7
    Format : UTF-8
    Codec ID : S_TEXT/UTF8
    Codec ID/Info : UTF-8 Plain Text
    Duration : 1 h 32 min
    Bit rate : 45 b/s
    Count of elements : 946
    Stream size : 30.7 KiB (0%)
    Title : Eng- SRT
    Language : English
    Default : No
    Forced : No

    Menu
    00:00:00.150 : en:00:00:00.150
    00:00:15.306 : en:00:00:15.306
    00:05:06.679 : en:00:05:06.679
    00:11:19.933 : en:00:11:19.933
    00:15:33.110 : en:00:15:33.110
    00:18:18.143 : en:00:18:18.143
    00:23:46.164 : en:00:23:46.164
    00:27:22.178 : en:00:27:22.178
    00:29:44.215 : en:00:29:44.215
    00:35:46.232 : en:00:35:46.232
    00:38:36.242 : en:00:38:36.242
    00:40:24.254 : en:00:40:24.254
    00:42:22.268 : en:00:42:22.268
    00:44:40.275 : en:00:44:40.275
    00:45:54.284 : en:00:45:54.284
    00:47:17.303 : en:00:47:17.303
    00:50:31.312 : en:00:50:31.312
    00:52:00.320 : en:00:52:00.320
    00:53:18.332 : en:00:53:18.332
    00:55:21.347 : en:00:55:21.347
    00:57:48.367 : en:00:57:48.367
    01:01:14.378 : en:01:01:14.378
    01:03:01.396 : en:01:03:01.396
    01:06:04.429 : en:01:06:04.429
    01:11:32.435 : en:01:11:32.435
    01:12:28.446 : en:01:12:28.446
    01:14:19.454 : en:01:14:19.454
    01:15:44.474 : en:01:15:44.474
    01:19:03.479 : en:01:19:03.479
    01:19:54.490 : en:01:19:54.490
    01:21:38.494 : en:01:21:38.494
    01:22:24.504 : en:01:22:24.504
    01:23:59.528 : en:01:23:59.528
    01:27:57.556 : en:01:27:57.556
    01:32:40.566 : en:01:32:40.566
    01:34:20.585 : en:01:34:20.585
    01:37:27.612 : en:01:37:27.612



    http://cornfile.com/gy1v750z6mjg

    http://fzfile.com/788ojv98ybqb

  2. The Following User Says Thank You to Duckload.us For This Useful Post:

    bigbang06 (06-18-2017)

+ ตอบกลับกระทู้

ข้อมูลกระทู้

Users Browsing this Thread

ในขณะนี้มี 1 ท่านดูกระทู้อยู่. (0 สมาชิกและ 1 ผู้เยี่ยมชม)

     

กฎการโพสต์ข้อความ

  • ท่าน ไม่สามารถ ตั้งกระทู้ใหม่ได้
  • ท่าน ไม่สามารถ ตอบกระทู้ได้
  • ท่าน ไม่สามารถ แนบไฟล์ได้
  • ท่าน ไม่สามารถ แก้ไขข้อความโพสต์ได้
  • BB code สถานะ เปิด
  • Smilies สถานะ เปิด
  • [IMG] สถานะ เปิด
  • HTML สถานะ ปิด