+ ตอบกลับกระทู้
สรุปผลการค้นหา 1 ถึง 2 จากทั้งหมด 2
  1. #1
    Administrators รูปส่วนตัว Duckload.us
    สมัครเมื่อ
    Dec 2010
    โพสต์
    135,849
    Thanks
    7
    Thanked 140,639 Times in 61,727 Posts

    Lightbulb [ฝรั่ง]-•[Netflix]• Marvels.Daredevil Complete Season 3 [2018] [เสียงอังกฤษ 5.1]-[บรรยายไทย + อังกฤษ]-[ซับไทย MASTER From Netflix]-[Soundtrack บรรยายไทย]-WEB-DL.H.265.1080p.





    Quote:











    Quote:



    Quote:

    เรื่องราวของทนายความหนุ่มที่มีความสามารถเหนือมนุษย ์ เป็น Super Hero ที่คอยพดุงความยุติธรรมให้กับสังคม ต่อสู้กับเหล่าอาชญากรเพื่อความสงบสุขของสังคม



    Quote:
    *ดู INFO Report คลิ๊ก!*
    Format : Matroska
    Format version : Version 4 / Version 2
    File size : 2.26 GiB
    Duration : 53 min 23 s
    Overall bit rate : 6 051 kb/s

    Video
    ID : 1
    Format : HEVC
    Format/Info : High Efficiency Video Coding
    Format profile : Main [email protected]@Main
    Codec ID : V_MPEGH/ISO/HEVC
    Duration : 52 min 30 s
    Bit rate : 5 757 kb/s
    Width : 1 920 pixels
    Height : 1 080 pixels
    Display aspect ratio : 16:9
    Frame rate mode : Constant
    Frame rate : 23.976 (24000/1001) FPS
    Color space : YUV
    Chroma subsampling : 4:2:0 (Type 2)
    Bit depth : 10 bits
    Bits/(Pixel*Frame) : 0.116
    Stream size : 2.11 GiB (94%)
    Default : Yes
    Forced : No
    Color range : Limited
    Color primaries : BT.2020
    Transfer characteristics : SMPTE ST 2084
    Matrix coefficients : BT.2020 non-constant
    Mastering display color pri : R: x=0.680000 y=0.320000, G: x=0.265000 y=0.690000, B: x=0.150000 y=0.060000, White point: x=0.312700 y=0.329000
    Mastering display luminance : min: 0.0050 cd/m2, max: 4000.0000 cd/m2
    Maximum Content Light Level : 10000 cd/m2
    Maximum Frame-Average Light : 513 cd/m2

    Audio
    ID : 2
    Format : AC-3
    Format/Info : Audio Coding 3
    Format settings, Endianness : Big
    Codec ID : A_AC3
    Duration : 53 min 23 s
    Bit rate mode : Constant
    Bit rate : 384 kb/s
    Channel(s) : 6 channels
    Channel positions : Front: L C R, Side: L R, LFE
    Sampling rate : 48.0 kHz
    Frame rate : 31.250 FPS (1536 spf)
    Bit depth : 16 bits
    Compression mode : Lossy
    Stream size : 147 MiB (6%)
    Title : English
    Language : English
    Service kind : Complete Main
    Default : Yes
    Forced : No

    Text 1
    ID : 3
    Format : UTF-8
    Codec ID : S_TEXT/UTF8
    Codec ID/Info : UTF-8 Plain Text
    Duration : 22 s 22 ms
    Bit rate : 82 b/s
    Count of elements : 6
    Stream size : 226 Bytes (0%)
    Title : English [Forced]
    Language : English
    Default : Yes
    Forced : Yes

    Text 2
    ID : 4
    Format : UTF-8
    Codec ID : S_TEXT/UTF8
    Codec ID/Info : UTF-8 Plain Text
    Duration : 50 min 34 s
    Bit rate : 56 b/s
    Count of elements : 628
    Stream size : 20.9 KiB (0%)
    Title : English [SDH]
    Language : English
    Default : No
    Forced : No


    Text 32
    ID : 34
    Format : UTF-8
    Codec ID : S_TEXT/UTF8
    Codec ID/Info : UTF-8 Plain Text
    Duration : 50 min 31 s
    Bit rate : 131 b/s
    Count of elements : 563
    Stream size : 48.5 KiB (0%)
    Title : Thai [Full]
    Language : Thai
    Default : No
    Forced : No





    Quote:




    1
    http://www.filecondo.com/dl.php?f=2a91931H3m9e
    2
    http://www.filecondo.com/dl.php?f=I9192a1H3mai
    3
    http://www.filecondo.com/dl.php?f=9daffb1H3mb5
    4
    http://www.filecondo.com/dl.php?f=S49b451H3mc3
    5
    http://www.filecondo.com/dl.php?f=w5d3731H3mcZ
    6
    http://www.filecondo.com/dl.php?f=Da847a1H3mdZ
    7
    http://www.filecondo.com/dl.php?f=3f3af91H3mfS
    8
    http://www.filecondo.com/dl.php?f=02f9511H3mgR
    9
    http://www.filecondo.com/dl.php?f=q053301H3mhR
    10
    http://www.filecondo.com/dl.php?f=w1b4a51H3miL
    11
    http://www.filecondo.com/dl.php?f=k2d2fb1H3mjL
    12
    http://www.filecondo.com/dl.php?f=L64cbb1H3mkL
    13
    http://www.filecondo.com/dl.php?f=Xa720c1H3mlI

  2. The Following User Says Thank You to Duckload.us For This Useful Post:

    gaszolineskywalker (04-05-2019)

  3. #2
    Senior Member
    สมัครเมื่อ
    Oct 2012
    โพสต์
    1,643
    Thanks
    2,573
    Thanked 0 Times in 0 Posts
    ขอบคุณครับ

+ ตอบกลับกระทู้

ข้อมูลกระทู้

Users Browsing this Thread

ในขณะนี้มี 1 ท่านดูกระทู้อยู่. (0 สมาชิกและ 1 ผู้เยี่ยมชม)

     

กฎการโพสต์ข้อความ

  • ท่าน ไม่สามารถ ตั้งกระทู้ใหม่ได้
  • ท่าน ไม่สามารถ ตอบกระทู้ได้
  • ท่าน ไม่สามารถ แนบไฟล์ได้
  • ท่าน ไม่สามารถ แก้ไขข้อความโพสต์ได้
  • BB code สถานะ เปิด
  • Smilies สถานะ เปิด
  • [IMG] สถานะ เปิด
  • HTML สถานะ ปิด