+ ตอบกลับกระทู้
สรุปผลการค้นหา 1 ถึง 5 จากทั้งหมด 5
  1. #1
    Administrators รูปส่วนตัว Duckload.us
    สมัครเมื่อ
    Dec 2010
    โพสต์
    139,860
    Thanks
    7
    Thanked 146,381 Times in 63,686 Posts

    Lightbulb [ฝรั่ง]-[* คมชัดระดับ 1080p HQ*] Narcos : Season One & Two & Three (TV Series 2015-2017) : นาร์โคส ปี 1-2-3 [เสียงอังกฤษ 5.1 จากบลูเรย์มาสเตอร์]-[บรรยายไทยคุณภาพจาก Netflix]-[x264/1080p*HQ/BluRay]-[@TSB]


    รวมแพ็คครบทั้ง 3 ซีซั่น + เเถมซับไทย SRT
    เสียงอังกฤษ 5.1 จากบลูเรย์มาสเตอร์ + บรรยายไทยคุณภาพจาก Netflix
    คมชัดระดับ 1080p HQ ___ [x264/1080p*HQ/BluRay]



    Quote:


    Narcos : Season One & Two | นาร์โคส ปี 1 & 2

    ปาโบล เอสโกบาร์ (วากเนอร์ โมร่า) เจ้าพ่อยาโคเคนที่สร้างตัวมาจากศูนย์ แต่ด้วยความหอมหวนของเงินและอำนาจ
    เริ่มทำให้ความเหิมเกริมของเขาสังเวยซากศพคนนับร้อย เพื่อขยายอาณาจักรให้ยานรกของเขา
    เรื่องร้อนไปถึงหน่วยปราบปรามยาเสพติดสหรัฐ จนต้องส่ง สตีฟ เมอร์ฟี (บอยด์ โฮลบรู๊ก) และ ฮาเวียร์ พีนา (เพโดร ปาสคาล)
    สองเจ้าหน้าที่สหรัฐบ้าดีเดือดมาเพื่อถอนรากถอนโคน ปาโบล เอสโกบาร์ ราชันย์ยานรกให้จงได้


    Narcos : Season Three | นาร์โคส ปี 3

    เมื่อแก๊งค้ายาอันดับหนึ่งของ ปาโบล เอสโกบาร์ ถูกทำลายลง เป้าหมายต่อไปของดีอีเอก็คือ
    แก๊งกาลี คาร์เทล หรือ สุภาพบุรุษกาลี นำทีมโดย เชเป (เปเป้ ราพาโซต) เกลเบอร์โต้ (เดเมี่ยน อัลคาซา)
    มิเกล (ฟรานซิสโก้ เดนนิส) เเละ ปาโช (อัลเบอร์โต้ เเอมมาน)


    Quote:



    Quote:

    General
    Complete name : Narcos.S01E01.Descenso.1080p.BluRay.AC3.x264-ThinmanSB.mkv
    Format : Matroska
    Format version : Version 4 / Version 2
    File size : 2.46 GiB
    Duration : 57mn 0s
    Overall bit rate : 6 188 Kbps
    Movie name : Narcos.S01E01.Descenso.1080p.BluRay.AC3.x264-ThinmanSB
    Encoded date : UTC 2019-06-01 07:04:53
    Writing application : mkvmerge v34.0.0 ('Sight and Seen') 64-bit
    Writing library : libebml v1.3.7 + libmatroska v1.5.0

    Video
    ID : 1
    Format : AVC
    Format/Info : Advanced Video Codec
    Format profile : [email protected]
    Format settings, CABAC : Yes
    Format settings, ReFrames : 4 frames
    Codec ID : V_MPEG4/ISO/AVC
    Duration : 57mn 0s
    Bit rate : 5 500 Kbps
    Width : 1 920 pixels
    Height : 1 080 pixels
    Display aspect ratio : 16:9
    Frame rate mode : Constant
    Frame rate : 23.976 fps
    Color space : YUV
    Chroma subsampling : 4:2:0
    Bit depth : 8 bits
    Scan type : Progressive
    Bits/(Pixel*Frame) : 0.111
    Stream size : 2.16 GiB (88%)
    Title : Narcos.S01E01.Descenso.1080p.BluRay.AC3.x264-ThinmanSB
    Writing library : x264 core 157 r2935 545de2f
    Language : English
    Default : Yes
    Forced : No
    Color range : Limited
    Color primaries : BT.709
    Transfer characteristics : BT.709
    Matrix coefficients : BT.709

    Audio
    ID : 2
    Format : AC-3
    Format/Info : Audio Coding 3
    Mode extension : CM (complete main)
    Format settings, Endianness : Big
    Codec ID : A_AC3
    Duration : 57mn 0s
    Bit rate mode : Constant
    Bit rate : 640 Kbps
    Channel(s) : 6 channels
    Channel positions : Front: L C R, Side: L R, LFE
    Sampling rate : 48.0 KHz
    Bit depth : 16 bits
    Compression mode : Lossy
    Delay relative to video : -5ms
    Stream size : 261 MiB (10%)
    Title : [ENGLISH AC-3 [email protected]]
    Language : English
    Default : Yes
    Forced : No

    Text #1
    ID : 3
    Format : UTF-8
    Codec ID : S_TEXT/UTF8
    Codec ID/Info : UTF-8 Plain Text
    Title : [THAI SRT FROM NETFLIX]
    Language : Thai
    Default : Yes
    Forced : No

    Text #2
    ID : 4
    Format : VobSub
    Muxing mode : zlib
    Codec ID : S_VOBSUB
    Codec ID/Info : Picture based subtitle format used on DVDs
    Title : [THAI IDX FROM NETFLIX]
    Language : Thai
    Default : No
    Forced : No

    Text #3
    ID : 5
    Format : PGS
    Muxing mode : zlib
    Codec ID : S_HDMV/PGS
    Codec ID/Info : Picture based subtitle format used on BDs/HD-DVDs
    Title : [THAI PGS FROM NETFLIX]
    Language : Thai
    Default : No
    Forced : No

    Text #4
    ID : 6
    Format : PGS
    Muxing mode : zlib
    Codec ID : S_HDMV/PGS
    Codec ID/Info : Picture based subtitle format used on BDs/HD-DVDs
    Title : [ENGLISH PGS FROM BLURAYMASTER]
    Language : English
    Default : No
    Forced : No


    Quote:


    Narcos : Season One | นาร์โคส ปี 1



    Narcos : Season Two | นาร์โคส ปี 2



    Narcos : Season Three | นาร์โคส ปี 3











    บรรยายไทยคุณภาพ จาก Netflix
    ภาพบลูเรย์ต้นฉบับ จาก ROVERS, SHORTBREHD



    Narcos.S03
    1
    http://www.filecondo.com/dl.php?f=G853d71Hzmva
    2
    http://www.filecondo.com/dl.php?f=gfb4871Hzmx5
    3
    http://www.filecondo.com/dl.php?f=za49281Hzmy5
    4
    http://www.filecondo.com/dl.php?f=n6871d1Hzmz2
    5
    http://www.filecondo.com/dl.php?f=Ab0ee01HzmBX
    6
    http://www.filecondo.com/dl.php?f=Q47b1b1HzmFP
    7
    http://www.filecondo.com/dl.php?f=649c961HzmGK
    8
    http://www.filecondo.com/dl.php?f=w3cc111HzmHI
    9
    http://www.filecondo.com/dl.php?f=251c301HzmIG
    10
    http://www.filecondo.com/dl.php?f=R0baac1HzmJE

    Narcos.S02
    1
    http://www.filecondo.com/dl.php?f=R04e2b1Hzmku
    2
    http://www.filecondo.com/dl.php?f=c68ea51Hzmlq
    3
    http://www.filecondo.com/dl.php?f=w4bb0c1Hzmmo
    4
    http://www.filecondo.com/dl.php?f=Ne26921Hzmnp
    5
    http://www.filecondo.com/dl.php?f=07f0a51Hzmom
    6
    http://www.filecondo.com/dl.php?f=V2d0cd1Hzmpk
    7
    http://www.filecondo.com/dl.php?f=cd8c541Hzmrg
    8
    http://www.filecondo.com/dl.php?f=3532841Hzmsf
    9
    http://www.filecondo.com/dl.php?f=46d0431Hzmtd
    10
    http://www.filecondo.com/dl.php?f=Rac4ca1Hzmua

    Narcos.S01
    1
    http://www.filecondo.com/dl.php?f=Ca876b1HyVxR
    2
    http://www.filecondo.com/dl.php?f=B8e3cb1HyVyM
    3
    http://www.filecondo.com/dl.php?f=X41b631HyVzP
    4
    http://www.filecondo.com/dl.php?f=Z24a8d1HyVAH
    5
    http://www.filecondo.com/dl.php?f=Z24a8d1HyVAH
    6
    http://www.filecondo.com/dl.php?f=r7d3111HyVCF
    7
    http://www.filecondo.com/dl.php?f=Beedce1HyVDD
    8
    http://www.filecondo.com/dl.php?f=2d14e71HyVEC
    9
    http://www.filecondo.com/dl.php?f=L506b41Hzmiy
    10
    http://www.filecondo.com/dl.php?f=2d14e71HyVEC

  2. #2
    Senior Member
    สมัครเมื่อ
    Jul 2012
    โพสต์
    8,134
    Thanks
    0
    Thanked 0 Times in 0 Posts
    ขอบคุณมากจ้า

  3. #3
    Junior Member
    สมัครเมื่อ
    Jul 2012
    โพสต์
    8
    Thanks
    0
    Thanked 0 Times in 0 Posts
    Narcos.S01 ตอนที่ 3 โหลดไม่ได้แล้วครับ

  4. #4
    Senior Member
    สมัครเมื่อ
    May 2011
    โพสต์
    154
    Thanks
    44
    Thanked 0 Times in 0 Posts
    s 1 e4,5 ซ้ำ
    5 ไม่มี

  5. #5
    Senior Member
    สมัครเมื่อ
    May 2011
    โพสต์
    154
    Thanks
    44
    Thanked 0 Times in 0 Posts
    S1 8ซ้ำกับ 10
    ไม่มี10

+ ตอบกลับกระทู้

ข้อมูลกระทู้

Users Browsing this Thread

ในขณะนี้มี 1 ท่านดูกระทู้อยู่. (0 สมาชิกและ 1 ผู้เยี่ยมชม)

     

กฎการโพสต์ข้อความ

  • ท่าน ไม่สามารถ ตั้งกระทู้ใหม่ได้
  • ท่าน ไม่สามารถ ตอบกระทู้ได้
  • ท่าน ไม่สามารถ แนบไฟล์ได้
  • ท่าน ไม่สามารถ แก้ไขข้อความโพสต์ได้
  • BB code สถานะ เปิด
  • Smilies สถานะ เปิด
  • [IMG] สถานะ เปิด
  • HTML สถานะ ปิด