+ ตอบกลับกระทู้
สรุปผลการค้นหา 1 ถึง 6 จากทั้งหมด 6
  1. #1
    Administrators รูปส่วนตัว Duckload.us
    สมัครเมื่อ
    Dec 2010
    โพสต์
    116,869
    Thanks
    7
    Thanked 123,195 Times in 55,220 Posts

    Lightbulb [จีน]-Oh My Emperor : ฮ่องเต้ที่รัก Season 1-2 Complete [เสียงพากย์จีน] [บรรยายไทย] [ซับไทย Master From WeTV + ซับ PGS คมชัด]-WEB-DL.H.264.1080p. [Soundtrack บรรยายไทย]




    ฮ่องเต้ที่รัก ภาค 1

    ณ โรงพยาบาลแห่งนึง ลั่ว เฟยเฟย เด็กฝึกงานที่มักจะเจอกับความโชคร้ายตลอดเวลา วันหนึ่งท้องฟ้าเกิดแปรปรวน ทำให้เธอหลุดไปยังอีกโลกหนึ่ง และได้เจอฮ่องเต้ เป่ย ถัง อี้ โดยไม่ได้ตั้งใจ และหน้าตาของฮ่องเต้ก็บังเอิญคล้ายกับไอดอลที่เธอชื่ นชอบ เธอได้รู้จักกับท่านอา ของฮ่องเต้คือ เป่ยถังม่อหราน ซึ่งเป็นคนที่หล่อที่สุดในแคว้นหวงเต้า เมื่อลั่วเฟยเฟย มาถึงที่นี้ เธอก็ทำให้ประเทศนี้จากที่เคยสงบสุข ไม่สงบอีกต่อไป ชีวิตของลั่วเฟยเฟย ได้มีความสัมพันธ์กับเจ้าราศีทั้ง 12 ราศี ทำให้เกิดเรื่องราวน่าขบขันมากมาย และในขณะเดียวกันเธอก็ได้ค้นพบ ความลับที่อยู่ในตัวเองด้วย


    ฮ่องเต้ที่รัก ภาค 2

    ชีวิตของลั่วเฟยเฟยที่แคว้นหวงเต้าเต็มไปด้วยอันตราย เพื่อที่จะปกป้องเฟยเฟย เป่ยถังม่อหรานจึงคิดจะเข้าพิธีแต่งงานกับนาง เรื่องราวรักสามเศร้าเราสามคน ระหว่าง เป่ยถังม่อ เปยถังอี้ และลั่วเฟยเฟยจะลงเอยเช่นไร ติดตามได้ใน ฮ่องเต้ที่รัก ภาค2

    Code:
    Format                                   : Matroska
    Format version                           : Version 4
    File size                                : 511 MiB
    Duration                                 : 25 min 2 s
    Overall bit rate                         : 2 855 kb/s
    Movie name                               : Oh.My.Emperor.S01.E01.1080p.WEB-DL.AC3.x264_by SkiesIT
    Encoded date                             : UTC 2019-06-25 04:33:03
    Writing application                      : mkvmerge v35.0.0 ('All The Love In The World') 64-bit
    Writing library                          : libebml v1.3.9 + libmatroska v1.5.2
    
    Video
    ID                                       : 1
    Format                                   : AVC
    Format/Info                              : Advanced Video Codec
    Format profile                           : [email protected]
    Format settings                          : CABAC / 4 Ref Frames
    Format settings, CABAC                   : Yes
    Format settings, Reference frames        : 4 frames
    Codec ID                                 : V_MPEG4/ISO/AVC
    Duration                                 : 25 min 2 s
    Bit rate                                 : 2 372 kb/s
    Width                                    : 1 920 pixels
    Height                                   : 1 080 pixels
    Display aspect ratio                     : 16:9
    Frame rate mode                          : Constant
    Frame rate                               : 25.000 FPS
    Color space                              : YUV
    Chroma subsampling                       : 4:2:0
    Bit depth                                : 8 bits
    Scan type                                : Progressive
    Bits/(Pixel*Frame)                       : 0.046
    Stream size                              : 425 MiB (83%)
    Title                                    : Oh.My.Emperor.S01.E01.1080p.WEB-DL.AC3.x264_by SkiesIT
    Language                                 : Chinese
    Default                                  : Yes
    Forced                                   : No
    Color range                              : Limited
    Color primaries                          : BT.709
    Transfer characteristics                 : BT.709
    Matrix coefficients                      : BT.709
    
    Audio
    ID                                       : 2
    Format                                   : AC-3
    Format/Info                              : Audio Coding 3
    Commercial name                          : Dolby Digital
    Codec ID                                 : A_AC3
    Duration                                 : 25 min 2 s
    Bit rate mode                            : Constant
    Bit rate                                 : 448 kb/s
    Channel(s)                               : 6 channels
    Channel layout                           : L R C LFE Ls Rs
    Sampling rate                            : 48.0 kHz
    Frame rate                               : 31.250 FPS (1536 SPF)
    Bit depth                                : 16 bits
    Compression mode                         : Lossy
    Stream size                              : 80.2 MiB (16%)
    Language                                 : Chinese
    Service kind                             : Complete Main
    Default                                  : Yes
    Forced                                   : No
    
    Text #1
    ID                                       : 3
    Format                                   : UTF-8
    Codec ID                                 : S_TEXT/UTF8
    Codec ID/Info                            : UTF-8 Plain Text
    Duration                                 : 19 min 42 s
    Bit rate                                 : 114 b/s
    Count of elements                        : 245
    Stream size                              : 16.6 KiB (0%)
    Title                                    : Thai SRT From WeTV
    Language                                 : Thai
    Default                                  : Yes
    Forced                                   : No
    
    Text #2
    ID                                       : 4
    Format                                   : PGS
    Muxing mode                              : zlib
    Codec ID                                 : S_HDMV/PGS
    Codec ID/Info                            : Picture based subtitle format used on BDs/HD-DVDs
    Duration                                 : 19 min 42 s
    Bit rate                                 : 28.5 kb/s
    Count of elements                        : 490
    Stream size                              : 4.02 MiB (1%)
    Title                                    : Thai PGS Angsana Yellow From WeTV
    Language                                 : Thai
    Default                                  : No
    Forced                                   : No
    
    Text #3
    ID                                       : 5
    Format                                   : PGS
    Muxing mode                              : zlib
    Codec ID                                 : S_HDMV/PGS
    Codec ID/Info                            : Picture based subtitle format used on BDs/HD-DVDs
    Duration                                 : 19 min 42 s
    Bit rate                                 : 28.5 kb/s
    Count of elements                        : 490
    Stream size                              : 4.02 MiB (1%)
    Title                                    : Thai PGS Angsana From WeTV
    Language                                 : Thai
    Default                                  : No
    Forced                                   : No
    
    Text #4
    ID                                       : 6
    Format                                   : PGS
    Muxing mode                              : zlib
    Codec ID                                 : S_HDMV/PGS
    Codec ID/Info                            : Picture based subtitle format used on BDs/HD-DVDs
    Duration                                 : 19 min 42 s
    Bit rate                                 : 26.8 kb/s
    Count of elements                        : 490
    Stream size                              : 3.78 MiB (1%)
    Title                                    : Thai PGS Tahoma From WeTV
    Language                                 : Thai
    Default                                  : No
    Forced                                   : No












    21.46 GB
    http://www.filecondo.com/dl.php?f=W1ab7a1HG1yd

  2. The Following User Says Thank You to Duckload.us For This Useful Post:

    iayamachi (08-11-2019)

  3. #2
    Senior Member
    สมัครเมื่อ
    Jan 2014
    โพสต์
    203
    Thanks
    0
    Thanked 0 Times in 0 Posts
    ขอบคุณค่ะ..ตามเว่ยอิงมาดูท่านอ๋องต่อ ^^

  4. #3
    Junior Member
    สมัครเมื่อ
    Jul 2012
    โพสต์
    4
    Thanks
    3
    Thanked 0 Times in 0 Posts
    ผมโหลดไม่ได้อ่ะครับ ช่วยดูให้หน่อยครับ

  5. #4
    Senior Member
    สมัครเมื่อ
    May 2012
    โพสต์
    324
    Thanks
    0
    Thanked 0 Times in 0 Posts
    โหลดไม่ได้แล้วนะครับ

  6. #5
    Junior Member
    สมัครเมื่อ
    Aug 2012
    โพสต์
    5
    Thanks
    0
    Thanked 0 Times in 0 Posts
    โหลดไม่ได้เช่นกันค่ะ

  7. #6
    Junior Member
    สมัครเมื่อ
    Jul 2020
    โพสต์
    4
    Thanks
    0
    Thanked 0 Times in 0 Posts
    โหลดไม่ได้ครับ ช่วยดูหน่อยครับ

+ ตอบกลับกระทู้

ข้อมูลกระทู้

Users Browsing this Thread

ในขณะนี้มี 1 ท่านดูกระทู้อยู่. (0 สมาชิกและ 1 ผู้เยี่ยมชม)

     

กฎการโพสต์ข้อความ

  • ท่าน ไม่สามารถ ตั้งกระทู้ใหม่ได้
  • ท่าน ไม่สามารถ ตอบกระทู้ได้
  • ท่าน ไม่สามารถ แนบไฟล์ได้
  • ท่าน ไม่สามารถ แก้ไขข้อความโพสต์ได้
  • BB code สถานะ เปิด
  • Smilies สถานะ เปิด
  • [IMG] สถานะ เปิด
  • HTML สถานะ ปิด