+ ตอบกลับกระทู้
สรุปผลการค้นหา 1 ถึง 4 จากทั้งหมด 4
  1. #1
    Administrators รูปส่วนตัว Duckload.us
    สมัครเมื่อ
    Dec 2010
    โพสต์
    108,708
    Thanks
    7
    Thanked 113,718 Times in 52,419 Posts

    Question [ฝรั่ง]-[**ใหม่ MINI HD 1080P**] • [Netflix] • I Am Mother (2019) : หุ่นเหล็ก โลกเรียกแม่ [1080p.NF.WEB-DL.DDP5.1.x264] • [เสียงอังกฤษ 5.1] • [บรรยายไทย Master From Netflix + อังกฤษ + ซับไทย PGS คมชัด]



    “I AM MOTHER” หนังไซไฟพล็อตเจ๋ง หุ่นยนต์กลายเป็นแม่

    ยกทีมนักแสดงเปิดตัว กวาดรีวิวเทบวก ณ เทศกาล Sundance Film Festival

    • • •

    1080p.NF.WEB-DL.DDP5.1.x264

    เสียงอังกฤษ - บรรยาย(ซับ)ไทย PGS คมชัด


    I Am Mother เป็นภาพยนตร์พล็อตล้ำฉีกกรอบโลกไซไฟกับเรืองราวของเด ็กสาววัยรุ่น “ดอเทอร์” (คลารา รูการ์ด) เป็นมนุษย์รุ่นแรกที่ถูกเลี้ยงขึ้นมาในศูนย์หลบภัยใต ้ดินกับ “มาเธอร์” หุ่นยนต์รูปร่างมนุษย์ที่ได้รับการพัฒนาขึ้นเพื่อทำห น้าที่เพาะพันธุ์มนุษย์หลังวิกฤติสูญพันธุ์ แต่ความสัมพันธ์ระหว่างแม่ลูกคู่นี้ต้องสั่นคลอนเมื่ อมีผู้หญิงเลือดโชก (ฮิลารี สแวงก์) มาเคาะประตูขอความช่วยเหลือ หญิงแปลกหน้าผู้นี้ทำให้ความเชื่อของดอว์เทอร์ที่มีต ่อโลกภายนอกเปลี่ยนไป การเริ่มต้นค้นหาความจริงครั้งยิ่งใหญ่จึงเริ่มต้นขึ ้น...!!!


    Format : Matroska
    Format version : Version 4
    File size : 5.12 GiB
    Duration : 1 h 53 min
    Overall bit rate mode : Variable
    Overall bit rate : 6 459 kb/s
    Movie name : [email protected]

    Video
    ID : 1
    Format : AVC
    Format/Info : Advanced Video Codec
    Format profile : [email protected]
    Format settings : CABAC / 3 Ref Frames
    Format settings, CABAC : Yes
    Format settings, RefFrames : 3 frames
    Codec ID : V_MPEG4/ISO/AVC
    Duration : 1 h 53 min
    Bit rate mode : Variable
    Bit rate : 5 800 kb/s
    Maximum bit rate : 8 700 kb/s
    Width : 1 920 pixels
    Height : 1 080 pixels
    Display aspect ratio : 16:9
    Frame rate mode : Constant
    Frame rate : 24.000 FPS
    Color space : YUV
    Chroma subsampling : 4:2:0
    Bit depth : 8 bits
    Scan type : Progressive
    Bits/(Pixel*Frame) : 0.117
    Stream size : 4.56 GiB (89%)
    Title : [email protected]
    Writing library : x264 core 148 r2715 7e75228
    Encoding settings : cabac=1 / ref=3 / deblock=1:0:0 / analyse=0x1:0x111 / me=umh / subme=10 / psy=1 / psy_rd=1.00:0.00 / mixed_ref=1 / me_range=24 / chroma_me=1 / trellis=2 / 8x8dct=0 / cqm=0 / deadzone=21,11 / fast_pskip=1 / chroma_qp_offset=-2 / threads=6 / lookahead_threads=1 / sliced_threads=0 / nr=0 / decimate=1 / interlaced=0 / bluray_compat=0 / stitchable=1 / constrained_intra=0 / bframes=2 / b_pyramid=0 / b_adapt=2 / b_bias=0 / direct=3 / weightb=1 / open_gop=0 / weightp=2 / keyint=250 / keyint_min=24 / scenecut=0 / intra_refresh=0 / rc_lookahead=48 / rc=2pass / mbtree=1 / bitrate=5800 / ratetol=1.0 / qcomp=0.50 / qpmin=6 / qpmax=51 / qpstep=4 / cplxblur=20.0 / qblur=0.5 / vbv_maxrate=8700 / vbv_bufsize=11600 / nal_hrd=vbr / filler=0 / ip_ratio=1.40 / aq=1:1.00
    Default : Yes
    Forced : No

    Audio
    ID : 2
    Format : E-AC-3
    Format/Info : Enhanced AC-3
    Commercial name : Dolby Digital Plus
    Codec ID : A_EAC3
    Duration : 1 h 53 min
    Bit rate mode : Constant
    Bit rate : 640 kb/s
    Channel(s) : 6 channels
    Channel layout : L R C LFE Ls Rs
    Sampling rate : 48.0 kHz
    Frame rate : 31.250 FPS (1536 SPF)
    Compression mode : Lossy
    Stream size : 520 MiB (10%)
    Title : English 5.1
    Language : English
    Service kind : Complete Main
    Default : Yes
    Forced : No

    Text #1
    ID : 3
    Format : VobSub
    Muxing mode : zlib
    Codec ID : S_VOBSUB
    Codec ID/Info : Picture based subtitle format used on DVDs
    Duration : 1 h 46 min
    Bit rate : 1 144 b/s
    Count of elements : 898
    Stream size : 891 KiB (0%)
    Title : Thai 480P
    Language : Thai
    Default : No
    Forced : No

    Text #2
    ID : 4
    Format : VobSub
    Muxing mode : zlib
    Codec ID : S_VOBSUB
    Codec ID/Info : Picture based subtitle format used on DVDs
    Duration : 1 h 46 min
    Bit rate : 2 039 b/s
    Count of elements : 898
    Stream size : 1.55 MiB (0%)
    Title : Thai 720P
    Language : Thai
    Default : No
    Forced : No

    Text #3
    ID : 5
    Format : VobSub
    Muxing mode : zlib
    Codec ID : S_VOBSUB
    Codec ID/Info : Picture based subtitle format used on DVDs
    Duration : 1 h 46 min
    Bit rate : 3 333 b/s
    Count of elements : 898
    Stream size : 2.53 MiB (0%)
    Title : Thai 1080P
    Language : Thai
    Default : No
    Forced : No

    Text #4
    ID : 6
    Format : VobSub
    Muxing mode : zlib
    Codec ID : S_VOBSUB
    Codec ID/Info : Picture based subtitle format used on DVDs
    Duration : 1 h 46 min
    Bit rate : 4 149 b/s
    Count of elements : 898
    Stream size : 3.15 MiB (0%)
    Title : Thai 1080P BIG
    Language : Thai
    Default : No
    Forced : No

    Text #5
    ID : 7
    Format : VobSub
    Muxing mode : zlib
    Codec ID : S_VOBSUB
    Codec ID/Info : Picture based subtitle format used on DVDs
    Duration : 1 h 46 min
    Bit rate : 3 333 b/s
    Count of elements : 898
    Stream size : 2.53 MiB (0%)
    Title : Thai 1080P OUT
    Language : Thai
    Default : No
    Forced : No

    Text #6
    ID : 8
    Format : VobSub
    Muxing mode : zlib
    Codec ID : S_VOBSUB
    Codec ID/Info : Picture based subtitle format used on DVDs
    Duration : 1 h 46 min
    Bit rate : 4 149 b/s
    Count of elements : 898
    Stream size : 3.15 MiB (0%)
    Title : Thai 1080P BIG[OUT]
    Language : Thai
    Default : No
    Forced : No

    Text #7
    ID : 9
    Format : VobSub
    Muxing mode : zlib
    Codec ID : S_VOBSUB
    Codec ID/Info : Picture based subtitle format used on DVDs
    Duration : 1 h 46 min
    Bit rate : 3 339 b/s
    Count of elements : 898
    Stream size : 2.54 MiB (0%)
    Title : Thai 1080P Yellow
    Language : Thai
    Default : No
    Forced : No

    Text #8
    ID : 10
    Format : UTF-8
    Codec ID : S_TEXT/UTF8
    Codec ID/Info : UTF-8 Plain Text
    Duration : 1 h 42 min
    Bit rate : 36 b/s
    Count of elements : 912
    Stream size : 27.7 KiB (0%)
    Title : English
    Language : English
    Default : No
    Forced : No

    Text #9
    ID : 11
    Format : PGS
    Muxing mode : zlib
    Codec ID : S_HDMV/PGS
    Codec ID/Info : Picture based subtitle format used on BDs/HD-DVDs
    Duration : 1 h 46 min
    Bit rate : 11.4 kb/s
    Count of elements : 1798
    Stream size : 8.67 MiB (0%)
    Title : Thai PGS
    Language : Thai
    Default : Yes
    Forced : No

    Text #10
    ID : 12
    Format : PGS
    Muxing mode : zlib
    Codec ID : S_HDMV/PGS
    Codec ID/Info : Picture based subtitle format used on BDs/HD-DVDs
    Duration : 1 h 46 min
    Bit rate : 14.4 kb/s
    Count of elements : 1798
    Stream size : 11.0 MiB (0%)
    Title : Thai PGS BIG
    Language : Thai
    Default : No
    Forced : No

    Text #11
    ID : 13
    Format : PGS
    Muxing mode : zlib
    Codec ID : S_HDMV/PGS
    Codec ID/Info : Picture based subtitle format used on BDs/HD-DVDs
    Duration : 1 h 46 min
    Bit rate : 11.4 kb/s
    Count of elements : 1798
    Stream size : 8.67 MiB (0%)
    Title : Thai PGS OUT
    Language : Thai
    Default : No
    Forced : No

    Text #12
    ID : 14
    Format : PGS
    Muxing mode : zlib
    Codec ID : S_HDMV/PGS
    Codec ID/Info : Picture based subtitle format used on BDs/HD-DVDs
    Duration : 1 h 46 min
    Bit rate : 11.5 kb/s
    Count of elements : 1798
    Stream size : 8.73 MiB (0%)
    Title : Thai PGS Yellow
    Language : Thai
    Default : No
    Forced : No

























    Download: cornfile
    http://cornfile.com/gfazfofknry0
    Download: mekafile
    http://www.mekafile.com/dl.php?f=l5dffbbWunbF

  2. The Following 4 Users Say Thank You to Duckload.us For This Useful Post:

    NaiWan (08-13-2019), noi54 (07-20-2019), Tatum03 (07-15-2019), Wesker_TOT (07-15-2019)

  3. #2
    Junior Member
    สมัครเมื่อ
    Jul 2019
    โพสต์
    2
    Thanks
    0
    Thanked 0 Times in 0 Posts
    โหลดไม่ได้ครับ อุส่าเติมเงินไปแล้วเสียใจ

  4. #3
    Senior Member
    สมัครเมื่อ
    Dec 2013
    โพสต์
    1,844
    Thanks
    3,781
    Thanked 0 Times in 0 Posts
    ขอบคุณนะครับ...

  5. #4
    Senior Member
    สมัครเมื่อ
    Oct 2013
    ที่อยู่
    Thailand
    โพสต์
    1,177
    Thanks
    1,052
    Thanked 0 Times in 0 Posts
    ขอบคุณมาก

+ ตอบกลับกระทู้

ข้อมูลกระทู้

Users Browsing this Thread

ในขณะนี้มี 1 ท่านดูกระทู้อยู่. (0 สมาชิกและ 1 ผู้เยี่ยมชม)

     

กฎการโพสต์ข้อความ

  • ท่าน ไม่สามารถ ตั้งกระทู้ใหม่ได้
  • ท่าน ไม่สามารถ ตอบกระทู้ได้
  • ท่าน ไม่สามารถ แนบไฟล์ได้
  • ท่าน ไม่สามารถ แก้ไขข้อความโพสต์ได้
  • BB code สถานะ เปิด
  • Smilies สถานะ เปิด
  • [IMG] สถานะ เปิด
  • HTML สถานะ ปิด