+ ตอบกลับกระทู้
สรุปผลการค้นหา 1 ถึง 2 จากทั้งหมด 2
  1. #1
    Administrators รูปส่วนตัว Duckload.us
    สมัครเมื่อ
    Dec 2010
    โพสต์
    108,730
    Thanks
    7
    Thanked 113,783 Times in 52,441 Posts

    Question [Mini HD] Dumbo (2019) ดัมโบ้ eng dts 5.1 thai 5.1 from DVD master[พากย์:อังกฤษ-ไทย][SUB:อังกฤษ-ไทย][1080p]





    จากดิสนีย์และผู้กำกับมากจินตนาการ ทิม เบอร์ตัน ภาพยนตร์ไลฟ์-แอ็คชั่นผจญภัยสุดยิ่งใหญ่เรื่องใหม่ “ดัมโบ้” จากเรื่องราวสุดคลาสสิคอันเป็นที่รัก ที่ซึ่งความแตกต่างเป็นเรื่องน่ายินดี ครอบครัวรักใคร่แน่นแฟ้น และความฝันโบยบิน เจ้าของคณะละครสัตว์ แม็กซ์ เมดิซี่ (แดนนี่ เดอวีโต้) ขอให้อดีตนักแสดง โฮลท์ ฟาริเออร์ (โคลิน ฟาร์เรล) และลูกๆของเขา มิลลี่ (นิโค พาร์คเกอร์) และ โจ (ฟินลีย์ ฮ็อบบินส์) ดูแลลูกช้างเกิดใหม่ ที่ใบหูขนาดใหญ่กว่าปกติ ทำให้เขาถูกหัวเราะเยาะ ในคณะละครสัตว์ที่สถานภาพไม่ค่อยจะสู้ดีอยู่แล้ว แต่เมื่อพวกเขาได้รู้ว่าดัมโบ้บินได้ คณะละครสัตว์ก็กลับมาเป็นที่นิยมอีกครั้งอย่างไม่น่า เชื่อ จนเข้าตานักธุรกิจผู้คร่ำหวอดอย่าง วี.เอ. แวนเดเวอร์ (ไมเคิล คีตัน) ที่คอยสรรหาสัตว์ใหญ่ที่มีความแปลกประหลาดสำหรับ ดรีมแลนด์ อัครสถานความบันเทิงสุดยิ่งใหญ่แห่งใหม่ล่าสุดของเขา ดัมโบ้ทะยานไปสู่ความสำเร็จคู่ไปกับนักกายกรรมผาดโผน ผู้มีเสน่ห์และฝีมือจัดจ้าน คอเลตต์ มาร์แชนท์ (เอวา กรีน) จนกระทั่งโฮลท์ได้รู้ว่าภายใต้ประกายวับวามภายนอกของ มัน ดรีมแลนด์ เต็มไปด้วยความลับอันดำมืด


    General
    Unique ID : 191747073136095624365121016795515154317 (0x9041249B007DC69F9824580AF31D6F8D)
    Complete name : D:\[Mini HD] Dumbo (2019).mkv thai 5.1
    Format : Matroska
    Format version : Version 4 / Version 2
    File size : 3.80 GiB
    Duration : 1 h 51 min
    Overall bit rate : 4 861 kb/s
    Encoded date : UTC 2019-07-14 13:27:33 / UTC 2019-07-14T08:37:17Z
    Writing application : mkvmerge v8.3.0 ('Over the Horizon') 64bit
    Writing library : libebml v1.3.1 + libmatroska v1.4.2 / Lavf55.12.0

    Video
    ID : 1
    Format : AVC
    Format/Info : Advanced Video Codec
    Format profile : [email protected]
    Format settings, CABAC : Yes
    Format settings, ReFrames : 4 frames
    Codec ID : V_MPEG4/ISO/AVC
    Duration : 1 h 51 min
    Bit rate : 2 807 kb/s
    Width : 1 920 pixels
    Height : 1 036 pixels
    Display aspect ratio : 1.85:1
    Frame rate mode : Constant
    Frame rate : 23.976 (24000/1001) FPS
    Color space : YUV
    Chroma subsampling : 4:2:0
    Bit depth : 8 bits
    Scan type : Progressive
    Bits/(Pixel*Frame) : 0.059
    Stream size : 2.20 GiB (58%)
    Writing library : x264 core 142 r2479 dd79a61
    Encoding settings : cabac=1 / ref=1 / deblock=1:0:0 / analyse=0x1:0x111 / me=hex / subme=2 / psy=1 / psy_rd=1.00:0.00 / mixed_ref=0 / me_range=16 / chroma_me=1 / trellis=0 / 8x8dct=0 / cqm=0 / deadzone=21,11 / fast_pskip=1 / chroma_qp_offset=0 / threads=6 / lookahead_threads=2 / sliced_threads=0 / nr=0 / decimate=1 / interlaced=0 / bluray_compat=0 / constrained_intra=0 / bframes=3 / b_pyramid=2 / b_adapt=1 / b_bias=0 / direct=1 / weightb=1 / open_gop=0 / weightp=1 / keyint=240 / keyint_min=24 / scenecut=40 / intra_refresh=0 / rc_lookahead=10 / rc=crf / mbtree=1 / crf=22.0 / qcomp=0.60 / qpmin=0 / qpmax=69 / qpstep=4 / vbv_maxrate=20000 / vbv_bufsize=25000 / crf_max=0.0 / nal_hrd=none / filler=0 / ip_ratio=1.40 / aq=1:1.00
    Default : Yes
    Forced : No
    Color range : Limited
    Color primaries : BT.709
    Transfer characteristics : BT.709
    Matrix coefficients : BT.709
    Statistics Tags Issue : mkvmerge v8.3.0 ('Over the Horizon') 64bit 2019-07-14 13:27:33 / mkvmerge v8.3.0 ('Over the Horizon') 64bit 2019-07-14 13:27:33 / UTC 2019-07-14T08:37:17Z
    FromStats_BitRate : 2971913
    FromStats_Duration : 01:51:56.502000000
    FromStats_FrameCount : 161035
    FromStats_StreamSize : 2495107885

    Audio #1
    ID : 2
    Format : DTS
    Format/Info : Digital Theater Systems
    Mode : 16
    Format settings, Endianness : Big
    Codec ID : A_DTS
    Duration : 1 h 51 min
    Bit rate mode : Constant
    Bit rate : 1 509 kb/s
    Channel(s) : 6 channels
    Channel positions : Front: L C R, Side: L R, LFE
    Sampling rate : 48.0 kHz
    Frame rate : 93.750 FPS (512 spf)
    Bit depth : 24 bits
    Compression mode : Lossy
    Delay relative to video : -83 ms
    Stream size : 1.18 GiB (31%)
    Language : English
    Default : No
    Forced : No
    Statistics Tags Issue : mkvmerge v8.3.0 ('Over the Horizon') 64bit 2019-07-14 13:27:33 / mkvmerge v8.3.0 ('Over the Horizon') 64bit 2019-07-14 13:27:33 / UTC 2019-07-14T08:37:17Z
    FromStats_BitRate : 1509000
    FromStats_Duration : 01:51:56.512000000
    FromStats_FrameCount : 629673
    FromStats_StreamSize : 1266902208

    Audio #2
    ID : 3
    Format : AC-3
    Format/Info : Audio Coding 3
    Mode extension : CM (complete main)
    Format settings, Endianness : Big
    Codec ID : A_AC3
    Duration : 1 h 51 min
    Bit rate mode : Constant
    Bit rate : 448 kb/s
    Channel(s) : 6 channels
    Channel positions : Front: L C R, Side: L R, LFE
    Sampling rate : 48.0 kHz
    Frame rate : 31.250 FPS (1536 spf)
    Compression mode : Lossy
    Delay relative to video : 917 ms
    Stream size : 359 MiB (9%)
    Language : Thai
    Default : Yes
    Forced : Yes
    Statistics Tags Issue : mkvmerge v8.3.0 ('Over the Horizon') 64bit 2019-07-14 13:27:33 / mkvmerge v8.3.0 ('Over the Horizon') 64bit 2019-07-14 13:27:33 / UTC 2019-07-14T08:37:17Z
    FromStats_BitRate : 448000
    FromStats_Duration : 01:22:05.184000000
    FromStats_FrameCount : 153912
    FromStats_StreamSize : 275810304

    Text #1
    ID : 4
    Format : PGS
    Muxing mode : zlib
    Codec ID : S_HDMV/PGS
    Codec ID/Info : Picture based subtitle format used on BDs/HD-DVDs
    Language : English
    Default : No
    Forced : No
    Statistics Tags Issue : mkvmerge v8.3.0 ('Over the Horizon') 64bit 2019-07-14 13:27:33 / mkvmerge v8.3.0 ('Over the Horizon') 64bit 2019-07-14 13:27:33 / UTC 2019-07-14T08:37:17Z
    FromStats_BitRate : 13789
    FromStats_Duration : 01:41:17.030000000
    FromStats_FrameCount : 2220
    FromStats_StreamSize : 10475227

    Text #2
    ID : 5
    Format : PGS
    Muxing mode : zlib
    Codec ID : S_HDMV/PGS
    Codec ID/Info : Picture based subtitle format used on BDs/HD-DVDs
    Language : Thai
    Default : No
    Forced : No
    Statistics Tags Issue : mkvmerge v8.3.0 ('Over the Horizon') 64bit 2019-07-14 13:27:33 / mkvmerge v8.3.0 ('Over the Horizon') 64bit 2019-07-14 13:27:33 / UTC 2019-07-14T08:37:17Z
    FromStats_BitRate : 16771
    FromStats_Duration : 01:44:37.278000000
    FromStats_FrameCount : 2342
    FromStats_StreamSize : 13159763

    Text #3
    ID : 6
    Format : PGS
    Muxing mode : zlib
    Codec ID : S_HDMV/PGS
    Codec ID/Info : Picture based subtitle format used on BDs/HD-DVDs
    Language : Thai
    Default : No
    Forced : No
    Statistics Tags Issue : mkvmerge v8.3.0 ('Over the Horizon') 64bit 2019-07-14 13:27:33 / mkvmerge v8.3.0 ('Over the Horizon') 64bit 2019-07-14 13:27:33 / UTC 2019-07-14T08:37:17Z
    FromStats_BitRate : 13513
    FromStats_Duration : 01:44:37.278000000
    FromStats_FrameCount : 2342
    FromStats_StreamSize : 10603881

    Text #4
    ID : 7
    Format : VobSub
    Muxing mode : zlib
    Codec ID : S_VOBSUB
    Codec ID/Info : Picture based subtitle format used on DVDs
    Language : Thai
    Default : Yes
    Forced : Yes
    Statistics Tags Issue : mkvmerge v8.3.0 ('Over the Horizon') 64bit 2019-07-14 13:27:33 / mkvmerge v8.3.0 ('Over the Horizon') 64bit 2019-07-14 13:27:33 / UTC 2019-07-14T08:37:17Z
    FromStats_BitRate : 4580
    FromStats_Duration : 01:44:37.261000000
    FromStats_FrameCount : 1170
    FromStats_StreamSize : 3594288

    Text #5
    ID : 8
    Format : VobSub
    Muxing mode : zlib
    Codec ID : S_VOBSUB
    Codec ID/Info : Picture based subtitle format used on DVDs
    Language : Thai
    Default : No
    Forced : No
    Statistics Tags Issue : mkvmerge v8.3.0 ('Over the Horizon') 64bit 2019-07-14 13:27:33 / mkvmerge v8.3.0 ('Over the Horizon') 64bit 2019-07-14 13:27:33 / UTC 2019-07-14T08:37:17Z
    FromStats_BitRate : 3944
    FromStats_Duration : 01:44:37.261000000
    FromStats_FrameCount : 1170
    FromStats_StreamSize : 3095438





    Download: cornfile
    http://cornfile.com/gn0moow1l2om
    Download: mekafile
    http://www.mekafile.com/dl.php?f=h3f8a3bWwYyf

  2. The Following 2 Users Say Thank You to Duckload.us For This Useful Post:

    bigbang06 (07-15-2019), mahns8f2u (07-16-2019)

  3. #2
    Member
    สมัครเมื่อ
    Apr 2016
    โพสต์
    40
    Thanks
    6
    Thanked 0 Times in 0 Posts

    เสียงมีปัญหา

    (ภาษาไทย) ตั้งแต่..1:22:06 ไม่มีเสียงครับ..

+ ตอบกลับกระทู้

ข้อมูลกระทู้

Users Browsing this Thread

ในขณะนี้มี 1 ท่านดูกระทู้อยู่. (0 สมาชิกและ 1 ผู้เยี่ยมชม)

     

กฎการโพสต์ข้อความ

  • ท่าน ไม่สามารถ ตั้งกระทู้ใหม่ได้
  • ท่าน ไม่สามารถ ตอบกระทู้ได้
  • ท่าน ไม่สามารถ แนบไฟล์ได้
  • ท่าน ไม่สามารถ แก้ไขข้อความโพสต์ได้
  • BB code สถานะ เปิด
  • Smilies สถานะ เปิด
  • [IMG] สถานะ เปิด
  • HTML สถานะ ปิด