+ ตอบกลับกระทู้
สรุปผลการค้นหา 1 ถึง 1 จากทั้งหมด 1
  1. #1
    Administrators รูปส่วนตัว Duckload.us
    สมัครเมื่อ
    Dec 2010
    โพสต์
    108,730
    Thanks
    7
    Thanked 113,781 Times in 52,441 Posts

    Question (ฝรั่ง.ใหม่.พากย์ไทยมาสเตอร์)-Breakthrough (2019) .Super HQ-ถ่ายทอดจากเรื่องจริงที่เหลือเชื่อ[1080p.BRX264][♪Sound:Eng/Thai AC3 5.1:MASTER][✏SUB:Eng*SRT*✏]



    Breakthrough : ปาฏิหารย์

    Breakthrough ภาพยนตร์คริสเตียนสร้างจากเรื่องจริงอีกเรื่องที่น่า สนใจมากๆ ในปี 2019
    เรื่องราวของแม่และลูกบุญธรรมที่เกิดอุบัติเหตุตกลงไ ปในน้ำแข็งนานกว่า 15 นาที แต่ด้วยความเชื่อ
    และความหวังในพระเจ้าที่จะไม่ยอมแพ้จึงต่อสู้เพื่อเอ าชีวิตรอดกลับมาให้ได้


    เป็นหนังที่ยังไม่เข้าไทย แต่แนะนำให้ดูครับ
    ฟัง soundtrack สามสี่เพลง มีแต่เพลงเพราะๆ แค่ฟังเพลงก็อินแล้ว
    เป็นหนังที่ภาพสวย เสียงดี เรทติ้งคนดูจากเว็บมะเขือเผา


    Format : Matroska
    Format version : Version 4
    File size : 3.91 GiB
    Duration : 1 h 56 min
    Overall bit rate : 4 819 kb/s
    Movie name : Breakthrough.2019.1080p.BluRay.x264-[Super HQ][email protected] CUP

    Video
    ID : 1
    Format : AVC
    Format/Info : Advanced Video Codec
    Format profile : [email protected]
    Format settings : CABAC / 1 Ref Frames
    Format settings, CABAC : Yes
    Format settings, Reference : 1 frame
    Format settings, GOP : M=1, N=25
    Codec ID : V_MPEG4/ISO/AVC
    Duration : 1 h 56 min
    Bit rate mode : Constant
    Bit rate : 4 500 kb/s
    Width : 1 920 pixels
    Height : 800 pixels
    Display aspect ratio : 2.40:1
    Frame rate mode : Constant
    Frame rate : 29.970 (30000/1001) FPS
    Color space : YUV
    Chroma subsampling : 4:2:0
    Bit depth : 8 bits
    Scan type : Progressive
    Bits/(Pixel*Frame) : 0.098
    Stream size : 3.65 GiB (93%)
    Title : Breakthrough.2019.1080p.BluRay.x264-[Super HQ][email protected] CUP
    Language : English
    Default : Yes
    Forced : No

    Audio #1
    ID : 2
    Format : AC-3
    Format/Info : Audio Coding 3
    Commercial name : Dolby Digital
    Codec ID : A_AC3
    Duration : 1 h 56 min
    Bit rate mode : Constant
    Bit rate : 160 kb/s
    Channel(s) : 6 channels
    Channel layout : L R C LFE Ls Rs
    Sampling rate : 44.1 kHz
    Frame rate : 28.711 FPS (1536 SPF)
    Bit depth : 16 bits
    Compression mode : Lossy
    Stream size : 133 MiB (3%)
    Title : 5.1 AC3-Thai 160k 133m
    Language : Thai
    Service kind : Complete Main
    Default : Yes
    Forced : No

    Audio #2
    ID : 3
    Format : AC-3
    Format/Info : Audio Coding 3
    Commercial name : Dolby Digital
    Codec ID : A_AC3
    Duration : 1 h 56 min
    Bit rate mode : Constant
    Bit rate : 160 kb/s
    Channel(s) : 6 channels
    Channel layout : L R C LFE Ls Rs
    Sampling rate : 44.1 kHz
    Frame rate : 28.711 FPS (1536 SPF)
    Bit depth : 16 bits
    Compression mode : Lossy
    Stream size : 133 MiB (3%)
    Title : 5.1 AC3-Eng 160k 133m
    Language : English
    Service kind : Complete Main
    Default : No
    Forced : No

    Text #1
    ID : 4
    Format : UTF-8
    Codec ID : S_TEXT/UTF8
    Codec ID/Info : UTF-8 Plain Text
    Duration : 1 h 53 min
    Bit rate : 58 b/s
    Count of elements : 1765
    Stream size : 48.9 KiB (0%)
    Title : SRT
    Language : English
    Default : Yes
    Forced : No

    Text #2
    ID : 5
    Format : UTF-8
    Codec ID : S_TEXT/UTF8
    Codec ID/Info : UTF-8 Plain Text
    Duration : 1 h 54 min
    Bit rate : 68 b/s
    Count of elements : 2069
    Stream size : 57.1 KiB (0%)
    Title : SRT-Hearing Impaired=ผู้บกพร่องทางเสียง
    Language : English
    Default : No
    Forced : No





    Download: cornfile
    http://cornfile.com/fm2qf0bz0407
    Download: mekafile
    http://www.mekafile.com/dl.php?f=F66cf3bWBRxx

  2. The Following User Says Thank You to Duckload.us For This Useful Post:

    apichartdear (07-17-2019)

+ ตอบกลับกระทู้

ข้อมูลกระทู้

Users Browsing this Thread

ในขณะนี้มี 1 ท่านดูกระทู้อยู่. (0 สมาชิกและ 1 ผู้เยี่ยมชม)

     

กฎการโพสต์ข้อความ

  • ท่าน ไม่สามารถ ตั้งกระทู้ใหม่ได้
  • ท่าน ไม่สามารถ ตอบกระทู้ได้
  • ท่าน ไม่สามารถ แนบไฟล์ได้
  • ท่าน ไม่สามารถ แก้ไขข้อความโพสต์ได้
  • BB code สถานะ เปิด
  • Smilies สถานะ เปิด
  • [IMG] สถานะ เปิด
  • HTML สถานะ ปิด