+ ตอบกลับกระทู้
สรุปผลการค้นหา 1 ถึง 2 จากทั้งหมด 2
  1. #1
    Administrators รูปส่วนตัว Duckload.us
    สมัครเมื่อ
    Dec 2010
    โพสต์
    108,548
    Thanks
    7
    Thanked 113,561 Times in 52,385 Posts

    Question [เกาหลี]-[* ใหม่ร้อน ๆ *][ Mini-HD 1080p ] Monstrum (Mulgoe) (2018) พันธุ์อสูรกลาย [พากย์ไทย 5.1 + Korean DTS-XLL] • [บรรยายไทย + อังกฤษ]-Blu-ray.DTS.1080p. [Modified]-[พากย์ไทย บรรยายไทย]




    อสูรร้ายในตำนานได้ทำให้ผู้คนบนเขาอินวังซานต้องหวาด ผวา

    ในช่วงแห่งราชวงศ์โชซอน โรคระบาดได้แพร่กระจายเข้าสู่ผู้คน เกิดภาวะแร้นแค้นทั่วทั้งเมือง ผู้คนต้องตื่นกระหนกเมื่อมีข่าวลือถึงอสูรร้ายแห่งบร รพกาลออกมาไล่ฆ่ามนุษย์บนภูเขาอินวังซาน

    ชาวเมืองเริ่มต่อต้านองค์จักรพรรดิ เพราะคิดว่าพระองค์จะไม่สามารถปกป้องพวกตนได้ พระองค์จึงมอบหมายให้ ยุน กยอม อดีตองครักษ์ประจำราชวงศ์ ออกไปสืบหาความจริงและล่าอสูรร้ายตัวนั้นก่อนที่การต ่อต้านจะรุนแรงเกินควบคุม แต่หารู้ไม่ว่าอสูรร้ายตัวนั้นอาจเป็นภัยอันตรายที่ส ามารถทำลายเมืองให้ย่อยยับ

    Format : MPEG-4
    Format profile : Base Media / Version 2
    Codec ID : mp42 (isom/iso2/avc1/mp41)
    File size : 7.57 GiB
    Duration : 1 h 45 min
    Overall bit rate mode : Variable
    Overall bit rate : 10.3 Mb/s
    Encoded date : UTC 2019-07-17 02:57:16
    Tagged date : UTC 2019-07-17 02:57:16
    Writing application : HandBrake 1.2.2 2019022300

    Video
    ID : 1
    Format : AVC
    Format/Info : Advanced Video Codec
    Format profile : [email protected]
    Format settings : CABAC / 4 Ref Frames
    Format settings, CABAC : Yes
    Format settings, ReFrames : 4 frames
    Codec ID : avc1
    Codec ID/Info : Advanced Video Coding
    Duration : 1 h 45 min
    Bit rate : 4 500 kb/s
    Width : 1 920 pixels
    Height : 1 036 pixels
    Display aspect ratio : 1.85:1
    Frame rate mode : Constant
    Frame rate : 24.000 FPS
    Color space : YUV
    Chroma subsampling : 4:2:0
    Bit depth : 8 bits
    Scan type : Progressive
    Bits/(Pixel*Frame) : 0.094
    Stream size : 3.28 GiB (43%)
    Writing library : x264 core 157 r2935 545de2f
    Encoding settings : cabac=1 / ref=3 / deblock=1:0:0 / analyse=0x3:0x113 / me=hex / subme=7 / psy=1 / psy_rd=1.00:0.00 / mixed_ref=1 / me_range=16 / chroma_me=1 / trellis=1 / 8x8dct=1 / cqm=0 / deadzone=21,11 / fast_pskip=1 / chroma_qp_offset=-2 / threads=12 / lookahead_threads=2 / sliced_threads=0 / nr=0 / decimate=1 / interlaced=0 / bluray_compat=0 / constrained_intra=0 / bframes=3 / b_pyramid=2 / b_adapt=1 / b_bias=0 / direct=1 / weightb=1 / open_gop=0 / weightp=2 / keyint=240 / keyint_min=24 / scenecut=40 / intra_refresh=0 / rc_lookahead=40 / rc=abr / mbtree=1 / bitrate=4500 / ratetol=1.0 / qcomp=0.60 / qpmin=0 / qpmax=69 / qpstep=4 / vbv_maxrate=62500 / vbv_bufsize=78125 / nal_hrd=none / filler=0 / ip_ratio=1.40 / aq=1:1.00
    Encoded date : UTC 2019-07-17 02:57:16
    Tagged date : UTC 2019-07-17 02:57:16
    Color range : Limited
    Color primaries : BT.709
    Transfer characteristics : BT.709
    Matrix coefficients : BT.709
    Codec configuration box : avcC

    Audio #1
    ID : 2
    Format : AAC LC
    Format/Info : Advanced Audio Codec Low Complexity
    Codec ID : mp4a-40-2
    Duration : 1 h 45 min
    Bit rate mode : Constant
    Bit rate : 448 kb/s
    Channel(s) : 6 channels
    Channel layout : C L R Ls Rs LFE
    Sampling rate : 48.0 kHz
    Frame rate : 46.875 FPS (1024 SPF)
    Compression mode : Lossy
    Stream size : 338 MiB (4%)
    Title : Surround
    Language : Thai
    Default : Yes
    Alternate group : 1
    Encoded date : UTC 2019-07-17 02:57:16
    Tagged date : UTC 2019-07-17 02:57:16
    Fallback From : 4

    Audio #2
    ID : 3
    Format : AAC LC
    Format/Info : Advanced Audio Codec Low Complexity
    Codec ID : mp4a-40-2
    Duration : 1 h 45 min
    Bit rate mode : Constant
    Bit rate : 448 kb/s
    Channel(s) : 6 channels
    Channel layout : C L R Ls Rs LFE
    Sampling rate : 48.0 kHz
    Frame rate : 46.875 FPS (1024 SPF)
    Compression mode : Lossy
    Stream size : 338 MiB (4%)
    Title : Surround
    Language : Korean
    Default : No
    Alternate group : 1
    Encoded date : UTC 2019-07-17 02:57:16
    Tagged date : UTC 2019-07-17 02:57:16
    Fallback From : 5

    Audio #3
    ID : 4
    Format : AC-3
    Format/Info : Audio Coding 3
    Commercial name : Dolby Digital
    Codec ID : ac-3
    Duration : 1 h 45 min
    Bit rate mode : Constant
    Bit rate : 448 kb/s
    Channel(s) : 6 channels
    Channel layout : L R C LFE Ls Rs
    Sampling rate : 48.0 kHz
    Frame rate : 31.250 FPS (1536 SPF)
    Bit depth : 16 bits
    Compression mode : Lossy
    Stream size : 338 MiB (4%)
    Title : Surround
    Language : Thai
    Service kind : Complete Main
    Default : Inherited From: 2
    Alternate group : 1
    Encoded date : UTC 2019-07-17 02:57:16
    Tagged date : UTC 2019-07-17 02:57:16
    Fallback To : 2

    Audio #4
    ID : 5
    Format : AC-3
    Format/Info : Audio Coding 3
    Commercial name : Dolby Digital
    Codec ID : ac-3
    Duration : 1 h 45 min
    Bit rate mode : Constant
    Bit rate : 640 kb/s
    Channel(s) : 6 channels
    Channel layout : L R C LFE Ls Rs
    Sampling rate : 48.0 kHz
    Frame rate : 31.250 FPS (1536 SPF)
    Bit depth : 16 bits
    Compression mode : Lossy
    Stream size : 483 MiB (6%)
    Title : Surround
    Language : Korean
    Service kind : Complete Main
    Default : No
    Alternate group : 1
    Encoded date : UTC 2019-07-17 02:57:16
    Tagged date : UTC 2019-07-17 02:57:16
    Fallback To : 3

    Audio #5
    ID : 6
    Format : DTS XLL
    Format/Info : Digital Theater Systems
    Commercial name : DTS-HD Master Audio
    Codec ID : mp4a-A9
    Duration : 1 h 45 min
    Bit rate mode : Variable
    Bit rate : 3 805 kb/s
    Channel(s) : 6 channels
    Channel layout : C L R Ls Rs LFE
    Sampling rate : 96.0 kHz
    Frame rate : 187.500 FPS (512 SPF)
    Bit depth : 24 bits
    Compression mode : Lossless
    Stream size : 2.80 GiB (37%)
    Title : Surround
    Language : Korean
    Default : No
    Alternate group : 1
    Encoded date : UTC 2019-07-17 02:57:16
    Tagged date : UTC 2019-07-17 02:57:16

    Text #1
    ID : 7
    Format : VobSub
    Codec ID : mp4s-E0
    Codec ID/Info : The same subtitle format used on DVDs
    Duration : 1 h 41 min
    Bit rate mode : Constant
    Bit rate : 6 045 b/s
    Stream size : 4.40 MiB (0%)
    Language : Thai
    Default : Yes
    Forced : No
    Alternate group : 3
    Encoded date : UTC 2019-07-17 02:57:16
    Tagged date : UTC 2019-07-17 02:57:16

    Text #2
    ID : 8
    Format : VobSub
    Codec ID : mp4s-E0
    Codec ID/Info : The same subtitle format used on DVDs
    Duration : 1 h 41 min
    Bit rate mode : Constant
    Bit rate : 6 630 b/s
    Stream size : 4.81 MiB (0%)
    Language : English
    Default : No
    Forced : No
    Alternate group : 3
    Encoded date : UTC 2019-07-17 02:57:16
    Tagged date : UTC 2019-07-17 02:57:16







    7.6 GB
    Download: cornfile
    http://cornfile.com/stbzb7ps76fr
    Download: mekafile
    http://www.mekafile.com/dl.php?f=fE4e3dbWGtob

    4.7 GB
    Download: cornfile
    http://cornfile.com/stbzb7ps76fr
    Download: mekafile
    http://www.mekafile.com/dl.php?f=fE4e3dbWGtob

  2. The Following 2 Users Say Thank You to Duckload.us For This Useful Post:

    noi54 (07-20-2019), Wesker_TOT (07-23-2019)

  3. #2
    Senior Member
    สมัครเมื่อ
    Jun 2014
    โพสต์
    1,340
    Thanks
    0
    Thanked 0 Times in 0 Posts
    ขอบคุณครับ

+ ตอบกลับกระทู้

ข้อมูลกระทู้

Users Browsing this Thread

ในขณะนี้มี 1 ท่านดูกระทู้อยู่. (0 สมาชิกและ 1 ผู้เยี่ยมชม)

     

กฎการโพสต์ข้อความ

  • ท่าน ไม่สามารถ ตั้งกระทู้ใหม่ได้
  • ท่าน ไม่สามารถ ตอบกระทู้ได้
  • ท่าน ไม่สามารถ แนบไฟล์ได้
  • ท่าน ไม่สามารถ แก้ไขข้อความโพสต์ได้
  • BB code สถานะ เปิด
  • Smilies สถานะ เปิด
  • [IMG] สถานะ เปิด
  • HTML สถานะ ปิด