+ ตอบกลับกระทู้
สรุปผลการค้นหา 1 ถึง 2 จากทั้งหมด 2
  1. #1
    Administrators รูปส่วนตัว Duckload.us
    สมัครเมื่อ
    Dec 2010
    โพสต์
    108,548
    Thanks
    7
    Thanked 113,561 Times in 52,385 Posts

    Question [ฝรั่ง]-[Netflix] Secret Obsession (2019) แอบ จ้อง ฆ่า-WEB-DL.H.264.1080p. [Master]-[Soundtrack บรรยายไทย]



    เจนนิเฟอร์ตื่นขึ้นพร้อมอาการสูญเสียความทรงจำจากเหต ุรุนแรงอันน่าเศร้า โดยมีสามีค่อยเอาใจใส่ดูแลอยู่ไม่ห่าง แต่ไม่ช้าเธอกลับค้นพบว่าอันตรายอาจอยู่ใกล้ตัวกว่าท ี่คิด

    Format : Matroska
    Format version : Version 4
    File size : 3.79 GiB
    Duration : 1 h 37 min
    Overall bit rate : 5 543 kb/s
    Encoded date : UTC 2019-07-18 07:54:58
    Writing application : mkvmerge v35.0.0 ('All The Love In The World') 64-bit
    Writing library : libebml v1.3.9 + libmatroska v1.5.2

    Video
    ID : 1
    Format : AVC
    Format/Info : Advanced Video Codec
    Format profile : [email protected]
    Format settings : CABAC / 3 Ref Frames
    Format settings, CABAC : Yes
    Format settings, Reference frames : 3 frames
    Codec ID : V_MPEG4/ISO/AVC
    Duration : 1 h 37 min
    Bit rate : 4 766 kb/s
    Width : 1 920 pixels
    Height : 1 080 pixels
    Display aspect ratio : 16:9
    Frame rate mode : Constant
    Frame rate : 23.976 (24000/1001) FPS
    Color space : YUV
    Chroma subsampling : 4:2:0
    Bit depth : 8 bits
    Scan type : Progressive
    Bits/(Pixel*Frame) : 0.096
    Stream size : 3.26 GiB (86%)
    Default : Yes
    Forced : No

    Audio
    ID : 2
    Format : E-AC-3 JOC
    Format/Info : Enhanced AC-3 with Joint Object Coding
    Commercial name : Dolby Digital Plus with Dolby Atmos
    Codec ID : A_EAC3
    Duration : 1 h 37 min
    Bit rate mode : Constant
    Bit rate : 768 kb/s
    Channel(s) : 6 channels
    Channel layout : L R C LFE Ls Rs
    Sampling rate : 48.0 kHz
    Frame rate : 31.250 FPS (1536 SPF)
    Compression mode : Lossy
    Stream size : 538 MiB (14%)
    Language : English
    Service kind : Complete Main
    Default : Yes
    Forced : No
    Complexity index : 16
    Number of dynamic objects : 15
    Bed channel count : 1 channel
    Bed channel configuration : LFE

    Text
    ID : 3
    Format : PGS
    Muxing mode : zlib
    Codec ID : S_HDMV/PGS
    Codec ID/Info : Picture based subtitle format used on BDs/HD-DVDs
    Duration : 1 h 36 min
    Bit rate : 16.0 kb/s
    Count of elements : 1816
    Stream size : 11.1 MiB (0%)
    Default : Yes
    Forced : No





    3.8 GB
    http://cornfile.com/99dhl4y20vjw
    http://www.mekafile.com/dl.php?f=8G8463bWGxQ7

    3.81 GB
    http://cornfile.com/jjcrfxy0thex
    http://www.mekafile.com/dl.php?f=Qo5b62bWGvEp

  2. The Following 2 Users Say Thank You to Duckload.us For This Useful Post:

    noi54 (07-20-2019), smakha (07-23-2019)

  3. #2
    Senior Member
    สมัครเมื่อ
    Jun 2014
    โพสต์
    1,340
    Thanks
    0
    Thanked 0 Times in 0 Posts
    ขอบคุณครับ

+ ตอบกลับกระทู้

ข้อมูลกระทู้

Users Browsing this Thread

ในขณะนี้มี 1 ท่านดูกระทู้อยู่. (0 สมาชิกและ 1 ผู้เยี่ยมชม)

     

กฎการโพสต์ข้อความ

  • ท่าน ไม่สามารถ ตั้งกระทู้ใหม่ได้
  • ท่าน ไม่สามารถ ตอบกระทู้ได้
  • ท่าน ไม่สามารถ แนบไฟล์ได้
  • ท่าน ไม่สามารถ แก้ไขข้อความโพสต์ได้
  • BB code สถานะ เปิด
  • Smilies สถานะ เปิด
  • [IMG] สถานะ เปิด
  • HTML สถานะ ปิด