Under the Dome



Rating: 6.6/10 Year: 2013 Genres: Drama / Mystery / Sci-Fi / Thriller Runtime: 43 min Language: English Director: n/A Writers: Stephen King / Brian K. Vaughan / Adam Stein Cast: Mike Vogel / Rachelle Lefevre / Alexander Kochโ€ฆ Plot:

Under the Dome is the story of a small town that is suddenly and inexplicably sealed off from the rest of the world by an enormous transparent dome. The town's inhabitants must deal with surviving the post-apocalyptic conditions while searching for answers about the dome, where it came from and if and when it will go away. Written by ahmetkozan

















Under The Dome ปริศนาโดมครอบเมือง ปี 1

จากนิยายขายดีของ Stephen King ได้กลายมาเป็นซีรีส์แนว Science Fiction Horror ในชื่อเดียวกันว่า Under the Dome เรื่องราวที่เริ่มต้นจากเมืองเล็กๆที่เงียบสงบชื่อว่ า Chester’s Mill ซึ่งได้ถูกตัดออกจากโลกภายนอกด้วยโดมที่โปร่งใสครอบเ มืองไว้ ไม่มีใครหรือสิ่งใดสามารถจะเข้าออกผ่านทะลุโดมนี้ไปไ ด้ ชาวเมืองต่างวิตกต่อสิ่งที่พวกเขาไม่รู้ว่ามันคืออะไ ร และจะเป็นอย่างนี้ไปอีกนานแค่ไหน หนทางที่จะรอดคือต้องพึ่งตัวเอง เพราะไม่มีใครจะช่วยพวกเขาได้แม้กระทั่งได้ยินเสียงพ วกเขา

เรท : PG-13
นักแสดง : Mike Vogel, Rachelle Lefevre, Alexander Koch
จำนวนตอน : 13 ตอน

xxxxxxxxxxxxxxxxxxxxxxxxxxxxxxxxxxxxxxxxxxxxxxxxxx xxxxxxx




Under The Dome ปริศนาโดมครอบเมือง ปี 2

จากนิยายขายดีของ Stephen King ได้กลายมาเป็นซีรีส์แนว Science Fiction Horror ในชื่อเดียวกันว่า Under the Dome เรื่องราวที่เริ่มต้นจากเมืองเล็กๆที่เงียบสงบชื่อว่ า Chester’s Mill ซึ่งได้ถูกตัดออกจากโลกภายนอกด้วยโดมที่โปร่งใสครอบเ มืองไว้ ไม่มีใครหรือสิ่งใดสามารถจะเข้าออกผ่านทะลุโดมนี้ไปไ ด้ ชาวเมืองต่างวิตกต่อสิ่งที่พวกเขาไม่รู้ว่ามันคืออะไ ร และจะเป็นอย่างนี้ไปอีกนานแค่ไหน หนทางที่จะรอดคือต้องพึ่งตัวเอง เพราะไม่มีใครจะช่วยพวกเขาได้แม้กระทั่งได้ยินเสียงพ วกเขา

เรท : PG-13
นักแสดง : Mike Vogel, Rachelle Lefevre, Alexander Koch
จำนวนตอน : 13 ตอน

xxxxxxxxxxxxxxxxxxxxxxxxxxxxxxxxxxxxxxxxxxxxxxxxxx xxxxxxx




Under The Dome ปริศนาโดมครอบเมือง ปี 3

เรื่องราวที่เริ่มต้นจากเมืองเล็กๆที่เงียบสงบชื่อว่ า Chester’s Mill ซึ่งได้ถูกตัดออกจากโลกภายนอกด้วยโดมที่โปร่งใสครอบเ มืองไว้ ไม่มีใครหรือสิ่งใดสามารถจะเข้าออกผ่านทะลุโดมนี้ไปไ ด้ ชาวเมืองต่างวิตกต่อสิ่งที่พวกเขาไม่รู้ว่ามันคืออะไ ร และจะเป็นอย่างนี้ไปอีกนานแค่ไหน หนทางที่จะรอดคือต้องพึ่งตัวเอง เพราะไม่มีใครจะช่วยพวกเขาได้แม้กระทั่งได้ยินเสียงพ วกเขา

เรท : PG-13
นักแสดง : Mike Vogel, Rachelle Lefevre, Alexander Koch
จำนวนตอน : 13 ตอน

xxxxxxxxxxxxxxxxxxxxxxxxxxxxxxxxxxxxxxxxxxxxxxxxxx xxxxxxx

Quote:

Video
ID : 1
Format : AVC
Format/Info : Advanced Video Codec
Format profile : [email protected]
Format settings, CABAC : Yes
Format settings, RefFrames : 3 frames
Codec ID : V_MPEG4/ISO/AVC
Duration : 42 min 38 s
Bit rate : 7 057 kb/s
Width : 1 920 pixels
Height : 1 080 pixels
Display aspect ratio : 16:9
Frame rate mode : Constant
Frame rate : 23.976 (24000/1001) FPS
Color space : YUV
Chroma subsampling : 4:2:0
Bit depth : 8 bits
Scan type : Progressive
Bits/(Pixel*Frame) : 0.142
Stream size : 2.10 GiB (97%)
Title : Under.The.Dome.2013.S01E01
Default : Yes
Forced : No

Audio
ID : 2
Format : E-AC-3
Format/Info : Enhanced Audio Coding 3
Format settings, Endianness : Big
Codec ID : A_EAC3
Duration : 42 min 38 s
Bit rate mode : Constant
Bit rate : 192 kb/s
Channel(s) : 6 channels
Channel positions : Front: L C R, Side: L R, LFE
Sampling rate : 48.0 kHz
Frame rate : 187.500 FPS (256 SPF)
Compression mode : Lossy
Delay relative to video : -41 ms
Stream size : 58.6 MiB (3%)
Title : EN AC3
Language : English
Service kind : Complete Main
Default : Yes
Forced : No

Text #1
ID : 3
Format : PGS
Muxing mode : zlib
Codec ID : S_HDMV/PGS
Codec ID/Info : Picture based subtitle format used on BDs/HD-DVDs
Duration : 41 min 20 s
Bit rate : 51.9 kb/s
Count of elements : 1000
Stream size : 15.3 MiB (1%)
Title : TH_PGS
Language : Thai
Default : Yes
Forced : No

Text #2
ID : 4
Format : VobSub
Muxing mode : zlib
Codec ID : S_VOBSUB
Codec ID/Info : Picture based subtitle format used on DVDs
Duration : 41 min 20 s
Bit rate : 10.3 kb/s
Count of elements : 500
Stream size : 3.04 MiB (0%)
Title : TH_VOB
Language : Thai
Default : No
Forced : No

Text #3
ID : 5
Format : VobSub
Muxing mode : zlib
Codec ID : S_VOBSUB
Codec ID/Info : Picture based subtitle format used on DVDs
Duration : 41 min 20 s
Bit rate : 10.3 kb/s
Count of elements : 500
Stream size : 3.04 MiB (0%)
Title : TH_VOB_YELLOW
Language : Thai
Default : No
Forced : No



xxxxxxxxxxxxxxxxxxxxxxxxxxxxxxxxxxxxxxxxxxxxxxxxxx xxxxxxx




1
http://www.filecondo.com/dl.php?f=J6edd31HVgPl
2
http://www.filecondo.com/dl.php?f=Ie64b21HVhei
3
http://www.filecondo.com/dl.php?f=h8604d1HVhSV