+ ตอบกลับกระทู้
สรุปผลการค้นหา 1 ถึง 7 จากทั้งหมด 7
  1. #1
    Administrators รูปส่วนตัว Duckload.us
    สมัครเมื่อ
    Dec 2010
    โพสต์
    115,803
    Thanks
    7
    Thanked 122,242 Times in 54,846 Posts

    Question X-Men ศึกมนุษย์พลังเหนือโลก 1-10 1080p-DTS-Blu ray-AVC-H 264-AAA [พากย์:ไทย อังกฤษ][SUB:ไทย อังกฤษ][1080i/p] พากย์ อังกฤษ DTS ไทย อังกฤษ AC-3 บรรยาย ไทย อังกฤษ



    ถือกำเนิดมาบนโลกที่เต็มไปด้วยอคติ พวกเขาคือเหล่ามนุษย์ที่เกิดมาพร้อมพลังพิเศษและอันต รายอันเป็นผลจากการเปลี่ยนแปลงทางพันธุกรรม
    อาทิ ไซคลอปส์ เจ้าของดวงตามหาประลัยที่สามารถฉายลำแสงพิฆาตออกมา, สตอร์ม หญิงสาวผู้ควบคุมลมฟ้าได้ดังใจนึก,
    โร้ก ผู้สามารถดูดพลังจากทุกคนที่เธอสัมผัส แต่ด้วยการดูแลของศาสตราจารย์ซาเวียร์ (แพทริค สจ๊วร์ต) มนุษย์พันธุ์พิเศษเหล่านี้เรียนรู้
    ที่จะควบคุมพลังเพื่อใช้ให้เป็นประโยชน์แก่มวลมนุษยช าติ เวลานี้พวกเขาต้องคอยปกป้องประชาชนที่หวาดกลัว
    ต้องต่อสู้กับแม็กนีโต้ (เอียน แม็คเคลเลน) ผู้เชื่อเสมอว่ามนุษย์ธรรมดากับมนุษย์พลังพิเศษไม่มี วันอยู่รวมกันได้ !!!


    Code:
    General
    Unique ID                                : 242842687272948711980236175331124637630 (0xB6B1CCE1BC2D0DA68B377CD4E994EFBE)
    Complete name                            : X-Men 01 ศึกมนุษย์พลังเหนือโลก (2000) 1080p.mkv
    Format                                   : Matroska
    Format version                           : Version 4
    File size                                : 12.3 GiB
    Duration                                 : 1 h 44 min
    Overall bit rate mode                    : Variable
    Overall bit rate                         : 16.9 Mb/s
    Encoded date                             : UTC 2016-07-21 04:31:55
    Writing application                      : mkvmerge v8.2.0 ('World of Adventure') 64bit
    Writing library                          : libebml v1.3.1 + libmatroska v1.4.2
    
    Video
    ID                                       : 1
    Format                                   : AVC
    Format/Info                              : Advanced Video Codec
    Format profile                           : [email protected]
    Format settings                          : CABAC / 4 Ref Frames
    Format settings, CABAC                   : Yes
    Format settings, RefFrames               : 4 frames
    Format settings, GOP                     : M=4, N=24
    Codec ID                                 : V_MPEG4/ISO/AVC
    Duration                                 : 1 h 44 min
    Bit rate mode                            : Variable
    Bit rate                                 : 14.0 Mb/s
    Maximum bit rate                         : 30.0 Mb/s
    Width                                    : 1 920 pixels
    Height                                   : 1 080 pixels
    Display aspect ratio                     : 16:9
    Frame rate mode                          : Constant
    Frame rate                               : 23.976 (24000/1001) FPS
    Color space                              : YUV
    Chroma subsampling                       : 4:2:0
    Bit depth                                : 8 bits
    Scan type                                : Progressive
    Bits/(Pixel*Frame)                       : 0.282
    Stream size                              : 10.2 GiB (83%)
    Language                                 : English
    Default                                  : Yes
    Forced                                   : No
    
    Audio #1
    ID                                       : 2
    Format                                   : AC-3
    Format/Info                              : Audio Coding 3
    Commercial name                          : Dolby Digital
    Codec ID                                 : A_AC3
    Duration                                 : 1 h 44 min
    Bit rate mode                            : Constant
    Bit rate                                 : 384 kb/s
    Channel(s)                               : 6 channels
    Channel layout                           : L R C LFE Ls Rs
    Sampling rate                            : 48.0 kHz
    Frame rate                               : 31.250 FPS (1536 SPF)
    Bit depth                                : 16 bits
    Compression mode                         : Lossy
    Stream size                              : 287 MiB (2%)
    Title                                    : Thai AC-3
    Language                                 : Thai
    Service kind                             : Complete Main
    Default                                  : Yes
    Forced                                   : Yes
    
    Audio #2
    ID                                       : 3
    Format                                   : DTS
    Format/Info                              : Digital Theater Systems
    Codec ID                                 : A_DTS
    Duration                                 : 1 h 44 min
    Bit rate mode                            : Constant
    Bit rate                                 : 1 509 kb/s
    Channel(s)                               : 6 channels
    Channel layout                           : C L R Ls Rs LFE
    Sampling rate                            : 48.0 kHz
    Frame rate                               : 93.750 FPS (512 SPF)
    Bit depth                                : 24 bits
    Compression mode                         : Lossy
    Stream size                              : 1.10 GiB (9%)
    Title                                    : Eng DTS
    Language                                 : English
    Default                                  : No
    Forced                                   : No
    
    Audio #3
    ID                                       : 4
    Format                                   : AC-3
    Format/Info                              : Audio Coding 3
    Commercial name                          : Dolby Digital
    Codec ID                                 : A_AC3
    Duration                                 : 1 h 44 min
    Bit rate mode                            : Constant
    Bit rate                                 : 640 kb/s
    Channel(s)                               : 6 channels
    Channel layout                           : L R C LFE Ls Rs
    Sampling rate                            : 48.0 kHz
    Frame rate                               : 31.250 FPS (1536 SPF)
    Bit depth                                : 16 bits
    Compression mode                         : Lossy
    Stream size                              : 478 MiB (4%)
    Title                                    : Eng AC-3
    Language                                 : English
    Service kind                             : Complete Main
    Default                                  : No
    Forced                                   : No
    
    Audio #4
    ID                                       : 5
    Format                                   : AC-3
    Format/Info                              : Audio Coding 3
    Commercial name                          : Dolby Digital
    Codec ID                                 : A_AC3
    Duration                                 : 1 h 44 min
    Bit rate mode                            : Constant
    Bit rate                                 : 224 kb/s
    Channel(s)                               : 2 channels
    Channel layout                           : L R
    Sampling rate                            : 48.0 kHz
    Frame rate                               : 31.250 FPS (1536 SPF)
    Bit depth                                : 16 bits
    Compression mode                         : Lossy
    Stream size                              : 167 MiB (1%)
    Title                                    : Eng Commentary
    Language                                 : English
    Service kind                             : Complete Main
    Default                                  : No
    Forced                                   : No
    
    Text #1
    ID                                       : 6
    Format                                   : VobSub
    Muxing mode                              : zlib
    Codec ID                                 : S_VOBSUB
    Codec ID/Info                            : Picture based subtitle format used on DVDs
    Duration                                 : 1 h 43 min
    Bit rate                                 : 998 b/s
    Count of elements                        : 800
    Stream size                              : 759 KiB (0%)
    Title                                    : Thai
    Language                                 : Thai
    Default                                  : No
    Forced                                   : No
    
    Text #2
    ID                                       : 7
    Format                                   : VobSub
    Muxing mode                              : zlib
    Codec ID                                 : S_VOBSUB
    Codec ID/Info                            : Picture based subtitle format used on DVDs
    Duration                                 : 1 h 34 min
    Bit rate                                 : 2 563 b/s
    Count of elements                        : 747
    Stream size                              : 1.73 MiB (0%)
    Title                                    : Eng
    Language                                 : English
    Default                                  : No
    Forced                                   : No
    
    Text #3
    ID                                       : 8
    Format                                   : PGS
    Muxing mode                              : zlib
    Codec ID                                 : S_HDMV/PGS
    Codec ID/Info                            : Picture based subtitle format used on BDs/HD-DVDs
    Duration                                 : 1 h 34 min
    Bit rate                                 : 15.4 kb/s
    Count of elements                        : 1494
    Stream size                              : 10.4 MiB (0%)
    Title                                    : Eng PGS
    Language                                 : English
    Default                                  : No
    Forced                                   : No
    
    Text #4
    ID                                       : 9
    Format                                   : UTF-8
    Codec ID                                 : S_TEXT/UTF8
    Codec ID/Info                            : UTF-8 Plain Text
    Duration                                 : 1 h 34 min
    Bit rate                                 : 34 b/s
    Count of elements                        : 601
    Stream size                              : 24.1 KiB (0%)
    Title                                    : Eng SRT
    Language                                 : English
    Default                                  : No
    Forced                                   : No
    
    Text #5
    ID                                       : 10
    Format                                   : PGS
    Muxing mode                              : zlib
    Codec ID                                 : S_HDMV/PGS
    Codec ID/Info                            : Picture based subtitle format used on BDs/HD-DVDs
    Duration                                 : 1 h 34 min
    Bit rate                                 : 10.5 kb/s
    Count of elements                        : 1580
    Stream size                              : 7.09 MiB (0%)
    Title                                    : Korean
    Language                                 : Korean
    Default                                  : No
    Forced                                   : No
    
    Text #6
    ID                                       : 11
    Format                                   : UTF-8
    Codec ID                                 : S_TEXT/UTF8
    Codec ID/Info                            : UTF-8 Plain Text
    Duration                                 : 1 h 34 min
    Bit rate                                 : 34 b/s
    Count of elements                        : 725
    Stream size                              : 23.6 KiB (0%)
    Title                                    : Spanish
    Language                                 : Spanish
    Default                                  : No
    Forced                                   : No
    
    Text #7
    ID                                       : 12
    Format                                   : PGS
    Muxing mode                              : zlib
    Codec ID                                 : S_HDMV/PGS
    Codec ID/Info                            : Picture based subtitle format used on BDs/HD-DVDs
    Duration                                 : 1 h 34 min
    Bit rate                                 : 13.1 kb/s
    Count of elements                        : 1451
    Stream size                              : 8.81 MiB (0%)
    Title                                    : Spanish
    Language                                 : Spanish
    Default                                  : No
    Forced                                   : No
    
    Text #8
    ID                                       : 13
    Format                                   : UTF-8
    Codec ID                                 : S_TEXT/UTF8
    Codec ID/Info                            : UTF-8 Plain Text
    Duration                                 : 1 h 34 min
    Bit rate                                 : 33 b/s
    Count of elements                        : 695
    Stream size                              : 23.5 KiB (0%)
    Title                                    : Portuguese
    Language                                 : Portuguese
    Default                                  : No
    Forced                                   : No
    
    Text #9
    ID                                       : 14
    Format                                   : PGS
    Muxing mode                              : zlib
    Codec ID                                 : S_HDMV/PGS
    Codec ID/Info                            : Picture based subtitle format used on BDs/HD-DVDs
    Duration                                 : 1 h 34 min
    Bit rate                                 : 13.2 kb/s
    Count of elements                        : 1391
    Stream size                              : 8.89 MiB (0%)
    Title                                    : Portuguese
    Language                                 : Portuguese
    Default                                  : No
    Forced                                   : No
    
    Text #10
    ID                                       : 15
    Format                                   : VobSub
    Muxing mode                              : zlib
    Codec ID                                 : S_VOBSUB
    Codec ID/Info                            : Picture based subtitle format used on DVDs
    Duration                                 : 1 h 34 min
    Bit rate                                 : 2 018 b/s
    Count of elements                        : 573
    Stream size                              : 1.36 MiB (0%)
    Title                                    : German
    Language                                 : German
    Default                                  : No
    Forced                                   : No
    
    Text #11
    ID                                       : 16
    Format                                   : VobSub
    Muxing mode                              : zlib
    Codec ID                                 : S_VOBSUB
    Codec ID/Info                            : Picture based subtitle format used on DVDs
    Duration                                 : 1 h 34 min
    Bit rate                                 : 2 009 b/s
    Count of elements                        : 604
    Stream size                              : 1.36 MiB (0%)
    Title                                    : Danish
    Language                                 : Danish
    Default                                  : No
    Forced                                   : No
    
    Text #12
    ID                                       : 17
    Format                                   : VobSub
    Muxing mode                              : zlib
    Codec ID                                 : S_VOBSUB
    Codec ID/Info                            : Picture based subtitle format used on DVDs
    Duration                                 : 1 h 34 min
    Bit rate                                 : 2 052 b/s
    Count of elements                        : 604
    Stream size                              : 1.38 MiB (0%)
    Title                                    : Finnish
    Language                                 : Finnish
    Default                                  : No
    Forced                                   : No
    
    Text #13
    ID                                       : 18
    Format                                   : VobSub
    Muxing mode                              : zlib
    Codec ID                                 : S_VOBSUB
    Codec ID/Info                            : Picture based subtitle format used on DVDs
    Duration                                 : 1 h 34 min
    Bit rate                                 : 2 015 b/s
    Count of elements                        : 603
    Stream size                              : 1.36 MiB (0%)
    Title                                    : Norwegian
    Language                                 : Norwegian
    Default                                  : No
    Forced                                   : No
    
    Text #14
    ID                                       : 19
    Format                                   : VobSub
    Muxing mode                              : zlib
    Codec ID                                 : S_VOBSUB
    Codec ID/Info                            : Picture based subtitle format used on DVDs
    Duration                                 : 1 h 43 min
    Bit rate                                 : 1 706 b/s
    Count of elements                        : 605
    Stream size                              : 1.27 MiB (0%)
    Title                                    : Swedish
    Language                                 : Swedish
    Default                                  : No
    Forced                                   : No
    
    Text #15
    ID                                       : 20
    Format                                   : PGS
    Muxing mode                              : zlib
    Codec ID                                 : S_HDMV/PGS
    Codec ID/Info                            : Picture based subtitle format used on BDs/HD-DVDs
    Duration                                 : 1 h 34 min
    Bit rate                                 : 14.3 kb/s
    Count of elements                        : 1422
    Stream size                              : 9.64 MiB (0%)
    Title                                    : Chinese
    Language                                 : Chinese
    Default                                  : No
    Forced                                   : No
    
    Text #16
    ID                                       : 21
    Format                                   : PGS
    Muxing mode                              : zlib
    Codec ID                                 : S_HDMV/PGS
    Codec ID/Info                            : Picture based subtitle format used on BDs/HD-DVDs
    Duration                                 : 1 h 34 min
    Bit rate                                 : 15.1 kb/s
    Count of elements                        : 1416
    Stream size                              : 10.2 MiB (0%)
    Title                                    : Chinese
    Language                                 : Chinese
    Default                                  : No
    Forced                                   : No
    
    Menu #1
    00:00:00.000                             : en:(01)00:00:00:000
    00:01:19.287                             : en:(02)00:01:19:287
    00:04:18.132                             : en:(03)00:04:18:132
    00:05:56.022                             : en:(04)00:05:56:022
    00:07:56.058                             : en:(05)00:07:56:058
    00:09:23.688                             : en:(06)00:09:23:688
    00:11:37.697                             : en:(07)00:11:37:697
    00:14:38.502                             : en:(08)00:14:38:502
    00:18:01.663                             : en:(09)00:18:01:663
    00:20:49.665                             : en:(10)00:20:49:665
    00:22:09.119                             : en:(11)00:22:09:119
    00:23:58.645                             : en:(12)00:23:58:645
    00:28:45.849                             : en:(13)00:28:45:849
    00:29:55.168                             : en:(14)00:29:55:168
    00:32:06.507                             : en:(15)00:32:06:507
    00:33:37.682                             : en:(16)00:33:37:682
    00:36:37.236                             : en:(17)00:36:37:236
    00:38:25.177                             : en:(18)00:38:25:177
    00:41:11.886                             : en:(19)00:41:11:886
    00:44:13.859                             : en:(20)00:44:13:859
    00:45:50.456                             : en:(21)00:45:50:456
    00:48:41.543                             : en:(22)00:48:41:543
    00:50:22.436                             : en:(23)00:50:22:436
    00:52:05.831                             : en:(24)00:52:05:831
    00:54:58.211                             : en:(25)00:54:58:211
    00:58:11.154                             : en:(26)00:58:11:154
    00:59:19.764                             : en:(27)00:59:19:764
    01:01:54.961                             : en:(28)01:01:54:961
    01:03:17.627                             : en:(29)01:03:17:627
    01:06:02.375                             : en:(30)01:06:02:375
    01:08:39.782                             : en:(31)01:08:39:782
    01:12:21.378                             : en:(32)01:12:21:378
    01:18:03.804                             : en:(33)01:18:03:804
    01:20:53.223                             : en:(34)01:20:53:223
    01:24:28.063                             : en:(35)01:24:28:063
    01:26:58.421                             : en:(36)01:26:58:421
    01:29:08.509                             : en:(37)01:29:08:509
    01:31:47.210                             : en:(38)01:31:47:210
    01:33:12.878                             : en:(39)01:33:12:878
    01:35:12.123                             : en:(40)01:35:12:123
    
    Menu #2
    00:00:00.000                             : en:Main Titles
    00:01:19.287                             : en:Security Breach
    00:04:18.132                             : en:Alkali Lake
    00:05:56.022                             : en:The Field Trip
    00:07:56.058                             : en:Stryker's War
    00:09:23.688                             : en:Logan's Return
    00:11:37.697                             : en:One Final Talk
    00:14:38.502                             : en:The Mutant Connection
    00:18:01.663                             : en:Mutant Intruder
    00:20:49.665                             : en:Nightcrawler
    00:22:09.119                             : en:Sleepless
    00:23:58.645                             : en:Magneto's Visitor
    00:28:45.849                             : en:The War Has Begun
    00:29:55.168                             : en:The Invaders
    00:32:06.507                             : en:Out of the Past
    00:33:37.682                             : en:Grace
    00:36:37.236                             : en:Stryker's Prisoner
    00:38:25.177                             : en:The Drake Home
    00:41:11.886                             : en:Too Much Iron
    00:44:13.859                             : en:This Mutant Problem
    00:45:50.456                             : en:Faith & Anger
    00:48:41.543                             : en:Dangerous Mutants
    00:50:22.436                             : en:Air Attack
    00:52:05.831                             : en:Stryker's Plan
    00:54:58.211                             : en:What Do You Want?
    00:58:11.154                             : en:The Mutant Inside
    00:59:19.764                             : en:Time to Find Our Friends
    01:01:54.961                             : en:Lover's Quarrel
    01:03:17.627                             : en:Point of Origin
    01:06:02.375                             : en:Two of a Kind
    01:08:39.782                             : en:Change of Plans
    01:12:21.378                             : en:An Animal
    01:18:03.804                             : en:To Stop Cerebro
    01:20:53.223                             : en:The Big Chill
    01:24:28.063                             : en:Escape
    01:26:58.421                             : en:The Only Way
    01:29:08.509                             : en:The President's Opportunity
    01:31:47.210                             : en:Left Behind
    01:33:12.878                             : en:Evolution Leaps Forward
    01:35:12.123                             : en:End Titles
    
    Menu #3
    00:00:00.000                             : en:Main Titles
    00:01:19.287                             : en:Security Breach
    00:04:18.132                             : en:Alkali Lake
    00:05:56.022                             : en:The Field Trip
    00:07:56.058                             : en:Stryker's War
    00:09:23.688                             : en:Logan's Return
    00:11:37.697                             : en:One Final Talk
    00:14:38.502                             : en:The Mutant Connection
    00:18:01.663                             : en:Mutant Intruder
    00:20:49.665                             : en:Nightcrawler
    00:22:09.119                             : en:Sleepless
    00:23:58.645                             : en:Magneto's Visitor
    00:28:45.849                             : en:The War Has Begun
    00:29:55.168                             : en:The Invaders
    00:32:06.507                             : en:Out of the Past
    00:33:37.682                             : en:Grace
    00:36:37.236                             : en:Stryker's Prisoner
    00:38:25.177                             : en:The Drake Home
    00:41:11.886                             : en:Too Much Iron
    00:44:13.859                             : en:This Mutant Problem
    00:45:50.456                             : en:Faith & Anger
    00:48:41.543                             : en:Dangerous Mutants
    00:50:22.436                             : en:Air Attack
    00:52:05.831                             : en:Stryker's Plan
    00:54:58.211                             : en:What Do You Want?
    00:58:11.154                             : en:The Mutant Inside
    00:59:19.764                             : en:Time to Find Our Friends
    01:01:54.961                             : en:Lover's Quarrel
    01:03:17.627                             : en:Point of Origin
    01:06:02.375                             : en:Two of a Kind
    01:08:39.782                             : en:Change of Plans
    01:12:21.378                             : en:An Animal
    01:18:03.804                             : en:To Stop Cerebro
    01:20:53.223                             : en:The Big Chill
    01:24:28.063                             : en:Escape
    01:26:58.421                             : en:The Only Way
    01:29:08.509                             : en:The President's Opportunity
    01:31:47.210                             : en:Left Behind
    01:33:12.878                             : en:Evolution Leaps Forward
    01:35:12.123                             : en:End Titles


    X-Men 10 Dark Phoenix ดาร์ก ฟีนิกซ์ (2019) 1080p

    จีน เกรย์ เริ่มที่จะพัฒนาศักยภาพอันเหลือเชื่อของเธอ ซึ่งนั่นมันได้นำไปสู่หนทางอันเลวร้าย แล้วมันก็ทำให้เธอกลายเป็นดาร์คฟีนิกซ์
    ตอนนี้เหล่าเอ็กซ์-เมนจึงจำเป็นต้องตัดสินใจว่าชีวิตของสมาชิกในทีมมันจ ะมีค่ามากกว่าชีวิตของคนทั้งโลกหรือไม่ !!!


    Code:
    General
    Unique ID                                : 227899834050053912706931962811393797413 (0xAB73E9563710F310BDAB39241DC86D25)
    Complete name                            : X-Men 10 Dark Phoenix ดาร์ก ฟีนิกซ์ (2019) 1080p.mkv
    Format                                   : Matroska
    Format version                           : Version 4
    File size                                : 9.67 GiB
    Duration                                 : 1 h 53 min
    Overall bit rate                         : 12.1 Mb/s
    Encoded date                             : UTC 2019-09-16 18:31:36
    Writing application                      : mkvmerge v8.2.0 ('World of Adventure') 64bit
    Writing library                          : libebml v1.3.1 + libmatroska v1.4.2
    
    Video
    ID                                       : 1
    Format                                   : AVC
    Format/Info                              : Advanced Video Codec
    Format profile                           : [email protected]
    Format settings                          : CABAC / 5 Ref Frames
    Format settings, CABAC                   : Yes
    Format settings, RefFrames               : 5 frames
    Codec ID                                 : V_MPEG4/ISO/AVC
    Duration                                 : 1 h 53 min
    Bit rate                                 : 9 479 kb/s
    Width                                    : 1 920 pixels
    Height                                   : 808 pixels
    Display aspect ratio                     : 2.40:1
    Frame rate mode                          : Constant
    Frame rate                               : 23.976 (24000/1001) FPS
    Color space                              : YUV
    Chroma subsampling                       : 4:2:0
    Bit depth                                : 8 bits
    Scan type                                : Progressive
    Bits/(Pixel*Frame)                       : 0.255
    Stream size                              : 7.54 GiB (78%)
    Writing library                          : x264 core 158 r2984 3759fcb
    Encoding settings                        : cabac=1 / ref=5 / deblock=1:-3:-3 / analyse=0x3:0x133 / me=umh / subme=8 / psy=1 / psy_rd=1.00:0.00 / mixed_ref=1 / me_range=16 / chroma_me=1 / trellis=1 / 8x8dct=1 / cqm=0 / deadzone=21,11 / fast_pskip=0 / chroma_qp_offset=-2 / threads=25 / lookahead_threads=4 / sliced_threads=0 / nr=0 / decimate=1 / interlaced=0 / bluray_compat=0 / constrained_intra=0 / bframes=3 / b_pyramid=2 / b_adapt=1 / b_bias=0 / direct=3 / weightb=1 / open_gop=0 / weightp=2 / keyint=250 / keyint_min=23 / scenecut=40 / intra_refresh=0 / rc_lookahead=50 / rc=2pass / mbtree=1 / bitrate=9479 / ratetol=1.0 / qcomp=0.60 / qpmin=0 / qpmax=69 / qpstep=4 / cplxblur=20.0 / qblur=0.5 / vbv_maxrate=62500 / vbv_bufsize=78125 / nal_hrd=none / filler=0 / ip_ratio=1.40 / aq=1:1.00
    Language                                 : English
    Default                                  : Yes
    Forced                                   : No
    
    Audio #1
    ID                                       : 2
    Format                                   : AC-3
    Format/Info                              : Audio Coding 3
    Commercial name                          : Dolby Digital
    Codec ID                                 : A_AC3
    Duration                                 : 1 h 53 min
    Bit rate mode                            : Constant
    Bit rate                                 : 448 kb/s
    Channel(s)                               : 6 channels
    Channel layout                           : L R C LFE Ls Rs
    Sampling rate                            : 48.0 kHz
    Frame rate                               : 31.250 FPS (1536 SPF)
    Bit depth                                : 16 bits
    Compression mode                         : Lossy
    Stream size                              : 365 MiB (4%)
    Title                                    : Thai AC-3
    Language                                 : Thai
    Service kind                             : Complete Main
    Default                                  : Yes
    Forced                                   : Yes
    
    Audio #2
    ID                                       : 3
    Format                                   : DTS
    Format/Info                              : Digital Theater Systems
    Codec ID                                 : A_DTS
    Duration                                 : 1 h 53 min
    Bit rate mode                            : Constant
    Bit rate                                 : 1 509 kb/s
    Channel(s)                               : 6 channels
    Channel layout                           : C L R Ls Rs LFE
    Sampling rate                            : 48.0 kHz
    Frame rate                               : 93.750 FPS (512 SPF)
    Bit depth                                : 24 bits
    Compression mode                         : Lossy
    Stream size                              : 1.20 GiB (12%)
    Title                                    : Eng DTS
    Language                                 : English
    Default                                  : No
    Forced                                   : No
    
    Audio #3
    ID                                       : 4
    Format                                   : AC-3
    Format/Info                              : Audio Coding 3
    Commercial name                          : Dolby Digital
    Codec ID                                 : A_AC3
    Duration                                 : 1 h 53 min
    Bit rate mode                            : Constant
    Bit rate                                 : 640 kb/s
    Channel(s)                               : 6 channels
    Channel layout                           : L R C LFE Ls Rs
    Sampling rate                            : 48.0 kHz
    Frame rate                               : 31.250 FPS (1536 SPF)
    Bit depth                                : 16 bits
    Compression mode                         : Lossy
    Stream size                              : 522 MiB (5%)
    Title                                    : Eng AC-3
    Language                                 : English
    Service kind                             : Complete Main
    Default                                  : No
    Forced                                   : No
    
    Text #1
    ID                                       : 5
    Format                                   : VobSub
    Muxing mode                              : zlib
    Codec ID                                 : S_VOBSUB
    Codec ID/Info                            : Picture based subtitle format used on DVDs
    Duration                                 : 1 h 53 min
    Bit rate                                 : 3 736 b/s
    Count of elements                        : 1105
    Stream size                              : 3.04 MiB (0%)
    Title                                    : Thai
    Language                                 : Thai
    Default                                  : No
    Forced                                   : No
    
    Text #2
    ID                                       : 6
    Format                                   : VobSub
    Muxing mode                              : zlib
    Codec ID                                 : S_VOBSUB
    Codec ID/Info                            : Picture based subtitle format used on DVDs
    Duration                                 : 1 h 53 min
    Bit rate                                 : 1 270 b/s
    Count of elements                        : 1105
    Stream size                              : 1.03 MiB (0%)
    Title                                    : Thai
    Language                                 : Thai
    Default                                  : No
    Forced                                   : No
    
    Text #3
    ID                                       : 7
    Format                                   : VobSub
    Muxing mode                              : zlib
    Codec ID                                 : S_VOBSUB
    Codec ID/Info                            : Picture based subtitle format used on DVDs
    Duration                                 : 1 h 53 min
    Bit rate                                 : 3 731 b/s
    Count of elements                        : 1105
    Stream size                              : 3.03 MiB (0%)
    Title                                    : Thai Yellow
    Language                                 : Thai
    Default                                  : No
    Forced                                   : No
    
    Text #4
    ID                                       : 8
    Format                                   : VobSub
    Muxing mode                              : zlib
    Codec ID                                 : S_VOBSUB
    Codec ID/Info                            : Picture based subtitle format used on DVDs
    Duration                                 : 1 h 53 min
    Bit rate                                 : 3 740 b/s
    Count of elements                        : 1105
    Stream size                              : 3.04 MiB (0%)
    Title                                    : Thai Out
    Language                                 : Thai
    Default                                  : No
    Forced                                   : No
    
    Text #5
    ID                                       : 9
    Format                                   : VobSub
    Muxing mode                              : zlib
    Codec ID                                 : S_VOBSUB
    Codec ID/Info                            : Picture based subtitle format used on DVDs
    Duration                                 : 1 h 53 min
    Bit rate                                 : 4 872 b/s
    Count of elements                        : 1105
    Stream size                              : 3.96 MiB (0%)
    Title                                    : Thai BIG
    Language                                 : Thai
    Default                                  : No
    Forced                                   : No
    
    Text #6
    ID                                       : 10
    Format                                   : VobSub
    Muxing mode                              : zlib
    Codec ID                                 : S_VOBSUB
    Codec ID/Info                            : Picture based subtitle format used on DVDs
    Duration                                 : 1 h 53 min
    Bit rate                                 : 4 882 b/s
    Count of elements                        : 1105
    Stream size                              : 3.97 MiB (0%)
    Title                                    : Thai Out BIG
    Language                                 : Thai
    Default                                  : No
    Forced                                   : No
    
    Text #7
    ID                                       : 11
    Format                                   : PGS
    Muxing mode                              : zlib
    Codec ID                                 : S_HDMV/PGS
    Codec ID/Info                            : Picture based subtitle format used on BDs/HD-DVDs
    Duration                                 : 1 h 53 min
    Bit rate                                 : 12.2 kb/s
    Count of elements                        : 2210
    Stream size                              : 9.94 MiB (0%)
    Title                                    : Thai PGS
    Language                                 : Thai
    Default                                  : No
    Forced                                   : No
    
    Text #8
    ID                                       : 12
    Format                                   : PGS
    Muxing mode                              : zlib
    Codec ID                                 : S_HDMV/PGS
    Codec ID/Info                            : Picture based subtitle format used on BDs/HD-DVDs
    Duration                                 : 1 h 53 min
    Bit rate                                 : 12.5 kb/s
    Count of elements                        : 2210
    Stream size                              : 10.2 MiB (0%)
    Title                                    : Thai PGS Yellow
    Language                                 : Thai
    Default                                  : No
    Forced                                   : No
    
    Text #9
    ID                                       : 13
    Format                                   : PGS
    Muxing mode                              : zlib
    Codec ID                                 : S_HDMV/PGS
    Codec ID/Info                            : Picture based subtitle format used on BDs/HD-DVDs
    Duration                                 : 1 h 53 min
    Bit rate                                 : 12.3 kb/s
    Count of elements                        : 2210
    Stream size                              : 10.0 MiB (0%)
    Title                                    : Thai PGS Out
    Language                                 : Thai
    Default                                  : No
    Forced                                   : No
    
    Text #10
    ID                                       : 14
    Format                                   : VobSub
    Muxing mode                              : zlib
    Codec ID                                 : S_VOBSUB
    Codec ID/Info                            : Picture based subtitle format used on DVDs
    Duration                                 : 1 h 53 min
    Bit rate                                 : 4 260 b/s
    Count of elements                        : 1415
    Stream size                              : 3.46 MiB (0%)
    Title                                    : Eng
    Language                                 : English
    Default                                  : No
    Forced                                   : No
    
    Text #11
    ID                                       : 15
    Format                                   : PGS
    Muxing mode                              : zlib
    Codec ID                                 : S_HDMV/PGS
    Codec ID/Info                            : Picture based subtitle format used on BDs/HD-DVDs
    Duration                                 : 1 h 53 min
    Bit rate                                 : 11.7 kb/s
    Count of elements                        : 2830
    Stream size                              : 9.49 MiB (0%)
    Title                                    : Eng PGS
    Language                                 : English
    Default                                  : No
    Forced                                   : No
    
    Text #12
    ID                                       : 16
    Format                                   : UTF-8
    Codec ID                                 : S_TEXT/UTF8
    Codec ID/Info                            : UTF-8 Plain Text
    Duration                                 : 31 min 20 s
    Bit rate                                 : 0 b/s
    Count of elements                        : 4
    Stream size                              : 168 Bytes (0%)
    Title                                    : Eng Forced
    Language                                 : English
    Default                                  : No
    Forced                                   : No
    
    Menu
    00:00:00.000                             : en:00:00:00.000
    00:03:28.875                             : en:00:03:28.875
    00:07:34.621                             : en:00:07:34.621
    00:11:42.201                             : en:00:11:42.201
    00:15:44.110                             : en:00:15:44.110
    00:18:37.408                             : en:00:18:37.408
    00:25:24.481                             : en:00:25:24.481
    00:31:40.357                             : en:00:31:40.357
    00:34:19.307                             : en:00:34:19.307
    00:40:07.447                             : en:00:40:07.447
    00:44:36.090                             : en:00:44:36.090
    00:49:07.778                             : en:00:49:07.778
    00:55:38.168                             : en:00:55:38.168
    00:58:57.409                             : en:00:58:57.409
    01:02:57.190                             : en:01:02:57.190
    01:10:40.111                             : en:01:10:40.111
    01:13:42.418                             : en:01:13:42.418
    01:19:33.477                             : en:01:19:33.477
    01:22:35.701                             : en:01:22:35.701
    01:25:49.061                             : en:01:25:49.061
    01:30:38.350                             : en:01:30:38.350
    01:32:48.188                             : en:01:32:48.188
    01:37:59.624                             : en:01:37:59.624
    01:45:01.045                             : en:01:45:01.045

    Download: cornfile
    X-Men 01 ศึกมนุษย์พลังเหนือโลก (2000) 1080p.mkv - 12.3 GB
    X-Men 02 United ศึกมนุษย์พลังเหนือโลก (2003) 1080p.mkv - 10.6 GB
    X-Men 03 The Last Stand รวมพลังประจัญบาน (2006) 1080p.mkv - 11.4 GB
    X-Men 04 Origins Wolverine กำเนิดวูล์ฟเวอรีน (2009) 1080p.mkv - 10.6 GB
    X-Men 05 First Class รุ่นแรก (2011) 1080p.mkv - 11.2 GB
    X-Men 06 The Wolverine เดอะ วูล์ฟเวอรีน (2013) EXTENDED 1080p.mkv - 10.8 GB
    X-Men 07 Days of Future Past สงครามวันพิฆาตกู้อนาคต (2014) The Rouge Cut 1080p.mkv - 10.7 GB
    X-Men 08 apocalypse อะพอคคาลิปส์ (2016) 1080p.mkv - 10.7 GB
    X-Men 09 Logan โลแกน The Wolverine (2017) 1080p.mkv - 11.8 GB
    X-Men 10 Dark Phoenix ดาร์ก ฟีนิกซ์ (2019) 1080p.mkv - 9.7 GB

    Download: mekafile
    X-Men 01 ศึกมนุษย์พลังเหนือโลก (2000) 1080p.mkv - 12.3 GB
    X-Men 02 United ศึกมนุษย์พลังเหนือโลก (2003) 1080p.mkv - 10.6 GB
    X-Men 03 The Last Stand รวมพลังประจัญบาน (2006) 1080p.mkv - 11.4 GB
    X-Men 04 Origins Wolverine กำเนิดวูล์ฟเวอรีน (2009) 1080p.mkv - 10.6 GB
    X-Men 05 First Class รุ่นแรก (2011) 1080p.mkv - 11.2 GB
    X-Men 06 The Wolverine เดอะ วูล์ฟเวอรีน (2013) EXTENDED 1080p.mkv - 10.8 GB
    X-Men 07 Days of Future Past สงครามวันพิฆาตกู้อนาคต (2014) The Rouge Cut 1080p.mkv - 10.7 GB
    X-Men 08 apocalypse อะพอคคาลิปส์ (2016) 1080p.mkv - 10.7 GB
    X-Men 09 Logan โลแกน The Wolverine (2017) 1080p.mkv - 11.8 GB
    X-Men 10 Dark Phoenix ดาร์ก ฟีนิกซ์ (2019) 1080p.mkv - 9.7 GB

  2. The Following 3 Users Say Thank You to Duckload.us For This Useful Post:

    agg001 (10-01-2019), apichartdear (10-02-2019), jangska (10-01-2019)

  3. #2
    Senior Member
    สมัครเมื่อ
    Jan 2011
    โพสต์
    738
    Thanks
    996
    Thanked 0 Times in 0 Posts
    ขอบคุณครับ

  4. #3
    Senior Member
    สมัครเมื่อ
    Jun 2014
    โพสต์
    4,088
    Thanks
    0
    Thanked 0 Times in 0 Posts
    ขอบคุณครับ

  5. #4
    Junior Member
    สมัครเมื่อ
    Oct 2013
    โพสต์
    5
    Thanks
    0
    Thanked 0 Times in 0 Posts
    2.3 mekafile โหลดไม่ได้

  6. #5
    Senior Member
    สมัครเมื่อ
    Feb 2020
    โพสต์
    191
    Thanks
    0
    Thanked 0 Times in 0 Posts
    ขอบคุณครับ

  7. #6
    Junior Member
    สมัครเมื่อ
    Feb 2017
    โพสต์
    22
    Thanks
    0
    Thanked 0 Times in 0 Posts
    ขอบคุณครับ

  8. #7
    Member รูปส่วนตัว Krek
    สมัครเมื่อ
    Dec 2019
    โพสต์
    52
    Thanks
    6
    Thanked 0 Times in 0 Posts
    ที่สุดของที่สุดแล้วครับ

+ ตอบกลับกระทู้

ข้อมูลกระทู้

Users Browsing this Thread

ในขณะนี้มี 1 ท่านดูกระทู้อยู่. (0 สมาชิกและ 1 ผู้เยี่ยมชม)

     

กฎการโพสต์ข้อความ

  • ท่าน ไม่สามารถ ตั้งกระทู้ใหม่ได้
  • ท่าน ไม่สามารถ ตอบกระทู้ได้
  • ท่าน ไม่สามารถ แนบไฟล์ได้
  • ท่าน ไม่สามารถ แก้ไขข้อความโพสต์ได้
  • BB code สถานะ เปิด
  • Smilies สถานะ เปิด
  • [IMG] สถานะ เปิด
  • HTML สถานะ ปิด