+ ตอบกลับกระทู้
สรุปผลการค้นหา 1 ถึง 5 จากทั้งหมด 5
  1. #1
    Administrators รูปส่วนตัว Duckload.us
    สมัครเมื่อ
    Dec 2010
    โพสต์
    111,366
    Thanks
    7
    Thanked 116,809 Times in 53,169 Posts

    Lightbulb [ฝรั่ง]-DC Titans Season 2[ Episode 01-06] [WEB-DL.H.264.1080p] [Hi-def rip from Master]-[Soundtrack บรรยายไทย (แปล)]



    The season two premiere episode follows directly after the apocalyptic events of last season's finale. With Rachel's father, Trigon (guest star Seamus Deaver) having successfully turned Dick dark, he sets out to win the others over to his side by embracing their inner darkness. With everyone under Trigon's control, Rachel and Gar find themselves fighting what seems like a hopeless battle against the powers of Trigon.

    Format : Matroska
    Format version : Version 4
    File size : 2.06 GiB
    Duration : 52 min 29 s
    Overall bit rate : 5 622 kb/s
    Encoded date : UTC 2019-09-06 13:24:30
    Writing application : mkvmerge v19.0.0 ('Brave Captain') 64-bit
    Writing library : libebml v1.3.5 + libmatroska v1.4.8

    Video
    ID : 1
    Format : AVC
    Format/Info : Advanced Video Codec
    Format profile : [email protected]
    Format settings : 3 Ref Frames
    Format settings, CABAC : No
    Format settings, Reference frames : 3 frames
    Format settings, GOP : M=1, N=48
    Codec ID : V_MPEG4/ISO/AVC
    Duration : 52 min 29 s
    Bit rate : 4 980 kb/s
    Width : 1 920 pixels
    Height : 1 080 pixels
    Display aspect ratio : 16:9
    Frame rate mode : Constant
    Frame rate : 23.976 (24000/1001) FPS
    Color space : YUV
    Chroma subsampling : 4:2:0
    Bit depth : 8 bits
    Scan type : Progressive
    Bits/(Pixel*Frame) : 0.100
    Stream size : 1.83 GiB (89%)
    Writing library : Zencoder Video Encoding System
    Default : Yes
    Forced : No
    Color range : Limited
    Color primaries : BT.709
    Transfer characteristics : BT.709
    Matrix coefficients : BT.709

    Audio
    ID : 2
    Format : AC-3
    Format/Info : Audio Coding 3
    Commercial name : Dolby Digital
    Codec ID : A_AC3
    Duration : 52 min 29 s
    Bit rate mode : Constant
    Bit rate : 640 kb/s
    Channel(s) : 6 channels
    Channel layout : L R C LFE Ls Rs
    Sampling rate : 48.0 kHz
    Frame rate : 31.250 FPS (1536 SPF)
    Bit depth : 16 bits
    Compression mode : Lossy
    Stream size : 240 MiB (11%)
    Language : English
    Service kind : Complete Main
    Default : Yes
    Forced : No

    Text
    ID : 3
    Format : UTF-8
    Codec ID : S_TEXT/UTF8
    Codec ID/Info : UTF-8 Plain Text
    Duration : 50 min 47 s
    Bit rate : 57 b/s
    Count of elements : 774
    Stream size : 21.5 KiB (0%)
    Title : English (SDH)
    Language : English
    Default : No
    Forced : No





    1
    http://www.filecondo.com/dl.php?f=id24f91IfzDp
    2
    http://www.filecondo.com/dl.php?f=7eae561IfzEh
    3
    http://www.filecondo.com/dl.php?f=X08c301IfzFk
    4
    http://www.filecondo.com/dl.php?f=52e1781Iiu1u
    5
    http://www.filecondo.com/dl.php?f=F53c601IjemI
    6
    http://www.filecondo.com/dl.php?f=C2aefa1IkYgL

  2. The Following User Says Thank You to Duckload.us For This Useful Post:

    mettset (10-03-2019)

  3. #2
    Senior Member
    สมัครเมื่อ
    May 2014
    โพสต์
    426
    Thanks
    0
    Thanked 0 Times in 0 Posts
    กราบงามๆ มาแล้วๆๆไฟล์คุณภาพ

  4. #3
    Senior Member
    สมัครเมื่อ
    May 2014
    โพสต์
    426
    Thanks
    0
    Thanked 0 Times in 0 Posts
    Subthai ของ ep.2 ไม่สัมพันธ์กันนะครับท่านเรียนแจ้งแก้ไขครับ

  5. #4
    Senior Member
    สมัครเมื่อ
    May 2014
    โพสต์
    426
    Thanks
    0
    Thanked 0 Times in 0 Posts
    รบกวนแก้ซับep.2 ด้วยนะครับท่าน

  6. #5
    Senior Member
    สมัครเมื่อ
    May 2014
    โพสต์
    426
    Thanks
    0
    Thanked 0 Times in 0 Posts
    อัพต่อไหมน้ออออออ

+ ตอบกลับกระทู้

ข้อมูลกระทู้

Users Browsing this Thread

ในขณะนี้มี 1 ท่านดูกระทู้อยู่. (0 สมาชิกและ 1 ผู้เยี่ยมชม)

     

กฎการโพสต์ข้อความ

  • ท่าน ไม่สามารถ ตั้งกระทู้ใหม่ได้
  • ท่าน ไม่สามารถ ตอบกระทู้ได้
  • ท่าน ไม่สามารถ แนบไฟล์ได้
  • ท่าน ไม่สามารถ แก้ไขข้อความโพสต์ได้
  • BB code สถานะ เปิด
  • Smilies สถานะ เปิด
  • [IMG] สถานะ เปิด
  • HTML สถานะ ปิด