+ ตอบกลับกระทู้
สรุปผลการค้นหา 1 ถึง 8 จากทั้งหมด 8
  1. #1
    Administrators รูปส่วนตัว Duckload.us
    สมัครเมื่อ
    Dec 2010
    โพสต์
    108,513
    Thanks
    7
    Thanked 113,462 Times in 52,350 Posts

    Cool [ฝรั่ง]-[Star Wars] The Mandalorian ซีซั่น 1 - [EP 1-4] (ซับไทย แปลคุณภาพ)-Encode.H.264.1080p. [From HD-TV]-[Soundtrack บรรยายไทย (แปล)]




    IMDb

    The Mandalorian
    Rating: 9.5/10 IMDb
    Year: 2019
    Genres: Action / Adventure / Sci-Fi
    Runtime: 60 min
    Language: English
    Director: n/A
    Writers: Jon Favreau / George Lucas / Rick Famuyiwa
    Cast: Pedro Pascal / Kyle Pacek / Brendan Wayneโ€ฆ




    Plot:

    After the stories of Jango and Boba Fett, another warrior emerges in the Star Wars universe. The Mandalorian is set after the fall of the Empire and before the emergence of the First Order. We follow the travails of a lone gunfighter in the outer reaches of the galaxy far from the authority of the New Republic.




    เรื่องย่อหนัง

    Sound :Eng DDP 5.1
    Subtitle : Eng และภาษาอื่นๆ Disney+

    หนึ่งซีรี่ย์ที่สาวกสตาร์วอร์พลาดไม่ได้ The Mandalorian ซีรี่ย์ภาคแยกจากมหากาพย์สงครามแห่งดวงดาว เล่าเรื่องราวการผจญภัยของ Mandalorian รับบทโดย Pedro Pascal (จาก Game of Thrones)นักสู้ผู้มาจากกาแล็กซี่อันไกลโพ้น โดยไทม์ไลน์จะเป็นช่วง 5 ปีหลังจากเหตุการณ์ใน Star Wars: Episode VI – Return of the Jedi (1983) ก่อนเหตุการณ์ใน Star Wars: The Force Awakens.

    Format : Matroska
    Format version : Version 4
    File size : 2.26 GiB
    Duration : 38 min 46 s
    Overall bit rate : 8 354 kb/s
    Encoded date : UTC 2019-11-12 16:53:11
    Writing application : mkvmerge v15.0.0 ('Duel with the Devil') 64-bit
    Writing library : libebml v1.3.5 + libmatroska v1.4.5
    Writing frontend : StaxRip v1.7.0.0

    Video
    ID : 1
    Format : AVC
    Format/Info : Advanced Video Codec
    Format profile : [email protected]
    Format settings : CABAC / 3 Ref Frames
    Format settings, CABAC : Yes
    Format settings, Reference frames : 3 frames
    Codec ID : V_MPEG4/ISO/AVC
    Duration : 38 min 46 s
    Bit rate : 7 584 kb/s
    Width : 1 920 pixels
    Height : 1 080 pixels
    Display aspect ratio : 16:9
    Frame rate mode : Constant
    Frame rate : 23.976 (24000/1001) FPS
    Color space : YUV
    Chroma subsampling : 4:2:0
    Bit depth : 8 bits
    Scan type : Progressive
    Bits/(Pixel*Frame) : 0.153
    Stream size : 2.05 GiB (91%)
    Default : Yes
    Forced : No

    Audio
    ID : 2
    Format : E-AC-3 JOC
    Format/Info : Enhanced AC-3 with Joint Object Coding
    Commercial name : Dolby Digital Plus with Dolby Atmos
    Codec ID : A_EAC3
    Duration : 38 min 46 s
    Bit rate mode : Constant
    Bit rate : 768 kb/s
    Channel(s) : 6 channels
    Channel layout : L R C LFE Ls Rs
    Sampling rate : 48.0 kHz
    Frame rate : 31.250 FPS (1536 SPF)
    Compression mode : Lossy
    Stream size : 213 MiB (9%)
    Language : English
    Service kind : Complete Main
    Default : No
    Forced : No
    Complexity index : 16
    Number of dynamic objects : 15
    Bed channel count : 1 channel
    Bed channel configuration : LFE

    Text #1
    ID : 3
    Format : UTF-8
    Codec ID : S_TEXT/UTF8
    Codec ID/Info : UTF-8 Plain Text
    Duration : 35 min 34 s
    Bit rate : 41 b/s
    Count of elements : 428
    Stream size : 10.9 KiB (0%)
    Language : English
    Default : No
    Forced : No

    Text #2
    ID : 4
    Format : UTF-8
    Codec ID : S_TEXT/UTF8
    Codec ID/Info : UTF-8 Plain Text
    Duration : 34 min 54 s
    Bit rate : 29 b/s
    Count of elements : 288
    Stream size : 7.63 KiB (0%)
    Language : English
    Default : No
    Forced : No





    Download: filecondo
    1 http://www.filecondo.com/dl.php?f=99b4491IuPPI
    1 http://www.filecondo.com/dl.php?f=R7a9201IwimM
    2 http://www.filecondo.com/dl.php?f=n1e0a01IwinH
    3 http://www.filecondo.com/dl.php?f=5011c61IytKT
    4 http://www.filecondo.com/dl.php?f=y978491IB39B
    Download: cornfile
    1 http://cornfile.com/tyhxkgizk4ul
    1 http://cornfile.com/1q5ufsvvozna
    2 http://cornfile.com/167yr410j7mg
    3 http://cornfile.com/pcpiaad97baq
    4 http://cornfile.com/ccstg1i100mf

    Download: mekafile
    1 http://www.mekafile.com/dl.php?f=pm64ddc1tQQq
    1 http://www.mekafile.com/dl.php?f=Vbd915c1E4yD
    2 http://www.mekafile.com/dl.php?f=us72d2c1E4Fi
    3 http://www.mekafile.com/dl.php?f=OYc394c1Tmbk
    4 รออัพ..

  2. The Following 5 Users Say Thank You to Duckload.us For This Useful Post:

    agg001 (11-14-2019), amorn wichian (11-18-2019), gozilla02 (11-18-2019), jackjangri (11-30-2019), jangska (11-14-2019)

  3. #2
    Member
    สมัครเมื่อ
    Jul 2013
    โพสต์
    85
    Thanks
    0
    Thanked 0 Times in 0 Posts
    ขอบคุณครับ ได้ดูแย้ว

  4. #3
    Senior Member
    สมัครเมื่อ
    Jun 2014
    โพสต์
    1,337
    Thanks
    0
    Thanked 0 Times in 0 Posts
    ขอบคุณครับ

  5. #4
    Junior Member รูปส่วนตัว srithep444
    สมัครเมื่อ
    Sep 2012
    โพสต์
    7
    Thanks
    0
    Thanked 0 Times in 0 Posts
    ขอบคุณครับ รอ Ep.2 เลยครับ

  6. #5
    Senior Member รูปส่วนตัว gozilla02
    สมัครเมื่อ
    Jul 2012
    โพสต์
    225
    Thanks
    87
    Thanked 1 Time in 1 Post
    แฟนหนังสตารว์อสไม่ควรพลาด
    http://rabbitfileloveav.blogspot.com/ โหลดหนัง AV 18+ใหม่ล่าสุด อัพเดตทุกวัน มีทุกแนว 1080P Cornfile 10000 เรื่อง

  7. #6
    Junior Member
    สมัครเมื่อ
    Feb 2019
    โพสต์
    17
    Thanks
    0
    Thanked 0 Times in 0 Posts
    The table 'attempip' is full มันขึ้นแบบนี้ อ่ะครับ โหลดไม่ได้ งง

  8. #7
    Junior Member
    สมัครเมื่อ
    Feb 2019
    โพสต์
    17
    Thanks
    0
    Thanked 0 Times in 0 Posts
    filecondo Part 4 ภาพมันแปลกๆค รับ

  9. #8
    Junior Member
    สมัครเมื่อ
    Oct 2013
    โพสต์
    4
    Thanks
    0
    Thanked 0 Times in 0 Posts
    mekafile รอนานกว่าชาวบ้านเลย แง่

+ ตอบกลับกระทู้

ข้อมูลกระทู้

Users Browsing this Thread

ในขณะนี้มี 1 ท่านดูกระทู้อยู่. (0 สมาชิกและ 1 ผู้เยี่ยมชม)

     

กฎการโพสต์ข้อความ

  • ท่าน ไม่สามารถ ตั้งกระทู้ใหม่ได้
  • ท่าน ไม่สามารถ ตอบกระทู้ได้
  • ท่าน ไม่สามารถ แนบไฟล์ได้
  • ท่าน ไม่สามารถ แก้ไขข้อความโพสต์ได้
  • BB code สถานะ เปิด
  • Smilies สถานะ เปิด
  • [IMG] สถานะ เปิด
  • HTML สถานะ ปิด