+ ตอบกลับกระทู้
สรุปผลการค้นหา 1 ถึง 3 จากทั้งหมด 3
  1. #1
    Administrators รูปส่วนตัว Duckload.us
    สมัครเมื่อ
    Dec 2010
    โพสต์
    108,588
    Thanks
    7
    Thanked 113,655 Times in 52,406 Posts

    Question [เกาหลี]-Money (2019) -WEB-DL.AC-3.1080p. [Modified]-[Soundtrack บรรยายไทย]



    เรื่องย่อ
    A rookie stockbroker Il-Hyun (RYU Jun-Yeol) dreams of making big money, but being a rookie without the right connections makes it difficult for got to survive in the cut-throat world of stock exchange market. So when he is approached by the Ticket (YOO Ji-Tae), an anonymous mastermind who secretly controls the stock market, he takes the chance despite the dire consequences.

    Code:
    Format                      : Matroska
    Format version              : Version 4
    File size                   : 4.25 GiB
    Duration                    : 1 h 55 min
    Overall bit rate mode       : Variable
    Overall bit rate            : 5 268 kb/s
    Encoded date                : UTC 2019-11-12 17:56:33
    Writing application         : mkvmerge v40.0.0 ('Old Town Road + Pony') 64-bit
    Writing library             : libebml v1.3.9 + libmatroska v1.5.2
    
    Video
    ID                          : 1
    Format                      : AVC
    Format/Info                 : Advanced Video Codec
    Format profile              : [email protected]
    Format settings             : CABAC / 1 Ref Frames
    Format settings, CABAC      : Yes
    Format settings, Reference  : 1 frame
    Codec ID                    : V_MPEG4/ISO/AVC
    Duration                    : 1 h 55 min
    Bit rate mode               : Variable
    Bit rate                    : 4 594 kb/s
    Maximum bit rate            : 13.5 Mb/s
    Width                       : 1 920 pixels
    Height                      : 800 pixels
    Display aspect ratio        : 2.40:1
    Frame rate mode             : Constant
    Frame rate                  : 29.970 (29970/1000) FPS
    Original frame rate         : 29.970 (30000/1001) FPS
    Color space                 : YUV
    Chroma subsampling          : 4:2:0
    Bit depth                   : 8 bits
    Scan type                   : Progressive
    Bits/(Pixel*Frame)          : 0.100
    Stream size                 : 3.71 GiB (87%)
    Language                    : Korean
    Default                     : Yes
    Forced                      : No
    
    Audio
    ID                          : 2
    Format                      : AC-3
    Format/Info                 : Audio Coding 3
    Commercial name             : Dolby Digital
    Codec ID                    : A_AC3
    Duration                    : 1 h 55 min
    Bit rate mode               : Constant
    Bit rate                    : 640 kb/s
    Channel(s)                  : 2 channels
    Channel layout              : L R
    Sampling rate               : 48.0 kHz
    Frame rate                  : 31.250 FPS (1536 SPF)
    Compression mode            : Lossy
    Delay relative to video     : -2 ms
    Stream size                 : 529 MiB (12%)
    Title                       : AC-3 Korean
    Language                    : Korean
    Service kind                : Complete Main
    Default                     : Yes
    Forced                      : No
    
    Text #1
    ID                          : 3
    Format                      : PGS
    Muxing mode                 : zlib
    Codec ID                    : S_HDMV/PGS
    Codec ID/Info               : Picture based subtitle format used on BDs/HD-DVDs
    Duration                    : 1 h 49 min
    Bit rate                    : 33.6 kb/s
    Count of elements           : 3012
    Stream size                 : 26.4 MiB (1%)
    Title                       : PGS THai
    Language                    : Thai
    Default                     : Yes
    Forced                      : No
    
    Text #2
    ID                          : 4
    Format                      : PGS
    Muxing mode                 : zlib
    Codec ID                    : S_HDMV/PGS
    Codec ID/Info               : Picture based subtitle format used on BDs/HD-DVDs
    Duration                    : 1 h 49 min
    Bit rate                    : 28.7 kb/s
    Count of elements           : 3010
    Stream size                 : 22.6 MiB (1%)
    Title                       : PGS English
    Language                    : English
    Default                     : No
    Forced                      : No




    Download: cornfile
    http://cornfile.com/n0ruyis92phl
    Download: mekafile
    http://www.mekafile.com/dl.php?f=aAe9eec1wktX

  2. The Following User Says Thank You to Duckload.us For This Useful Post:

    chakhrit (11-14-2019)

  3. #2
    Senior Member
    สมัครเมื่อ
    Jun 2014
    โพสต์
    1,347
    Thanks
    0
    Thanked 0 Times in 0 Posts
    ขอบคุณครับ

  4. #3
    Member
    สมัครเมื่อ
    Jul 2013
    โพสต์
    88
    Thanks
    0
    Thanked 0 Times in 0 Posts
    ขอบคุณครับผม

+ ตอบกลับกระทู้

ข้อมูลกระทู้

Users Browsing this Thread

ในขณะนี้มี 1 ท่านดูกระทู้อยู่. (0 สมาชิกและ 1 ผู้เยี่ยมชม)

     

กฎการโพสต์ข้อความ

  • ท่าน ไม่สามารถ ตั้งกระทู้ใหม่ได้
  • ท่าน ไม่สามารถ ตอบกระทู้ได้
  • ท่าน ไม่สามารถ แนบไฟล์ได้
  • ท่าน ไม่สามารถ แก้ไขข้อความโพสต์ได้
  • BB code สถานะ เปิด
  • Smilies สถานะ เปิด
  • [IMG] สถานะ เปิด
  • HTML สถานะ ปิด