+ ตอบกลับกระทู้
สรุปผลการค้นหา 1 ถึง 3 จากทั้งหมด 3
  1. #1
    Administrators รูปส่วนตัว Duckload.us
    สมัครเมื่อ
    Dec 2010
    โพสต์
    108,668
    Thanks
    7
    Thanked 113,698 Times in 52,418 Posts

    Angry [ฝรั่ง]-[* ใหม่ร้ ภาพชัดระดับมาสเตอร์+เสียงไทยโรงครบ! *] Angel Has Fallen (2019) ผ่ายุทธการ ดับแผนอหังการ์ [* 1080p.WEB-DL.DD5.1.x264.AC3.THR2.0 *] [พากย์ไทยโรง 2.0 + เสียงอังกฤษ 5.1] [บรรยายอังกฤษ]



    เรื่องย่อ : เจ้าหน้าที่หน่วยสืบราชการลับ ไมค์ แบนนิ่ง (เจอราร์ด บัตเลอร์) กลับมาทำหน้าที่คุ้มกันประธานาธิบดีสหรัฐอเมริกาเช่น เคย แต่จู่ ๆ กลับมีเหตุร้ายที่ไม่ฆ่าคิดเกิดขึ้นทำให้สมาชิกร่วมห น่วยของเขาเสียชีวิตทั้งหมด ซ้ำร้ายไมค์ยังโดนจับกุมด้วยข้อหาพยายามลอบสังหารประ ธานธิบดีเนื่องจากมีชีวิตรอดมาแค่คนเดียว และนั่นคือสาเหตุที่ทำให้ไมค์ต้องเผชิญหน้ากับหน่วยร าชการลับของเขา เพื่อหาหนอนบ่อนไส้และต้นตอผู้ใส่ร้ายป้ายสีเขาให้ได ้!!!

    Format : AVC
    Format/Info : Advanced Video Codec
    Format profile : [email protected]
    Format settings, CABAC : Yes
    Format settings, RefFrames : 5 frames
    Codec ID : V_MPEG4/ISO/AVC
    Duration : 2 h 1 min
    Bit rate : 4 243 kb/s
    Width : 1 920 pixels
    Height : 800 pixels
    Display aspect ratio : 2.40:1
    Frame rate mode : Constant
    Frame rate : 23.976 (23976/1000) FPS
    Color space : YUV
    Chroma subsampling : 4:2:0
    Bit depth : 8 bits
    Scan type : Progressive
    Bits/(Pixel*Frame) : 0.115
    Stream size : 3.59 GiB (88%)
    Title : Angel.Has.Fallen.2019.1080p.WEB-DL.DD5.1.x264.AC3.THR2.0_HeRMineZ
    Language : English
    Default : Yes
    Forced : No
    Color range : Limited
    Color primaries : BT.709
    Transfer characteristics : BT.709
    Matrix coefficients : BT.709

    Audio #1
    ID : 2
    Format : AC-3
    Format/Info : Audio Coding 3
    Format settings, Endianness : Big
    Codec ID : A_AC3
    Duration : 2 h 1 min
    Bit rate mode : Constant
    Bit rate : 192 kb/s
    Channel(s) : 2 channels
    Channel positions : Front: L R
    Sampling rate : 48.0 kHz
    Frame rate : 31.250 FPS (1536 SPF)
    Bit depth : 16 bits
    Compression mode : Lossy
    Delay relative to video : -42 ms
    Stream size : 166 MiB (4%)
    Title : Thai Rong 2.0 Modified By HeRMineZ @192 Kbps
    Service kind : Complete Main
    Default : Yes
    Forced : No

    Audio #2
    ID : 3
    Format : AC-3
    Format/Info : Audio Coding 3
    Format settings, Endianness : Big
    Codec ID : A_AC3
    Duration : 2 h 1 min
    Bit rate mode : Constant
    Bit rate : 384 kb/s
    Channel(s) : 6 channels
    Channel positions : Front: L C R, Side: L R, LFE
    Sampling rate : 48.0 kHz
    Frame rate : 31.250 FPS (1536 SPF)
    Bit depth : 16 bits
    Compression mode : Lossy
    Delay relative to video : -42 ms
    Stream size : 332 MiB (8%)
    Title : English 5.1 @384 Kbps
    Language : English
    Service kind : Complete Main
    Default : No
    Forced : No

    Text
    ID : 4
    Format : UTF-8
    Codec ID : S_TEXT/UTF8
    Codec ID/Info : UTF-8 Plain Text
    Duration : 1 h 52 min
    Bit rate : 85 b/s
    Count of elements : 1580
    Stream size : 70.8 KiB (0%)
    Title : English Sub
    Language : English
    Default : Yes
    Forced : No

    Menu
    00:00:00.000 : en:1
    00:01:32.000 : en:2
    00:11:33.000 : en:3
    00:23:14.000 : en:4
    00:32:30.000 : en:5
    00:41:02.000 : en:6
    00:50:57.000 : en:7
    01:03:06.000 : en:8
    01:12:09.000 : en:9
    01:19:34.000 : en:10
    01:30:46.000 : en:11
    01:39:41.000 : en:12
    01:53:09.000 : en:13

















    Download: cornfile
    http://cornfile.com/zcv22jm7icyc
    Download: mekafile
    meka อัพไม่ได้ครับ หนังค่าย M

  2. The Following User Says Thank You to Duckload.us For This Useful Post:

    noi54 (12-03-2019)

  3. #2
    Senior Member
    สมัครเมื่อ
    Jun 2014
    โพสต์
    1,347
    Thanks
    0
    Thanked 0 Times in 0 Posts
    ขอบคุณครับ

  4. #3
    ขอบคุณครับ เว็บผมก็มีครับผม Angel Has Fallen ผ่ายุทธการ ดับแผนอหังการ์ (2019)
    เว็บดูหนังออนไลน์ ดูหนังใหม่ ดูหนัง ดูหนังฟรี www.Do-9.com

+ ตอบกลับกระทู้

ข้อมูลกระทู้

Users Browsing this Thread

ในขณะนี้มี 1 ท่านดูกระทู้อยู่. (0 สมาชิกและ 1 ผู้เยี่ยมชม)

     

กฎการโพสต์ข้อความ

  • ท่าน ไม่สามารถ ตั้งกระทู้ใหม่ได้
  • ท่าน ไม่สามารถ ตอบกระทู้ได้
  • ท่าน ไม่สามารถ แนบไฟล์ได้
  • ท่าน ไม่สามารถ แก้ไขข้อความโพสต์ได้
  • BB code สถานะ เปิด
  • Smilies สถานะ เปิด
  • [IMG] สถานะ เปิด
  • HTML สถานะ ปิด