+ ตอบกลับกระทู้
สรุปผลการค้นหา 1 ถึง 5 จากทั้งหมด 5
  1. #1
    Administrators รูปส่วนตัว Duckload.us
    สมัครเมื่อ
    Dec 2010
    โพสต์
    108,668
    Thanks
    7
    Thanked 113,703 Times in 52,418 Posts

    Question [ฝรั่ง]-[Netflix] Klaus (2019) มหัศจรรย์ตำนานคริสต์มาส-WEB-DL.H.264.1080p. [Master]-[พากย์ไทย บรรยายไทย]



    Klaus



    Rating: 9/10 Year: 2019 Genres: Animation / Adventure / Comedy / Family Runtime: 96 min Language: English / Spanish Director: Sergio Pablos Writers: Zach Lewis / Jim Mahoney / Sergio Pablos Cast: Rashida Jones / Joan Cusack / J.K. Simmonsโ€ฆ Plot:

    When Jesper (Jason Schwartzman) distinguishes himself as the postal academy's worst student, he is stationed on a frozen island above the Arctic Circle, where the feuding locals hardly exchange words let alone letters. Jesper is about to give up when he finds an ally in local teacher Alva (Rashida Jones), and discovers Klaus (Oscarยฎ winner J.K. Simmons), a mysterious carpenter who lives alone in a cabin full of handmade toys. These unlikely friendships return laughter to Smeerensburg, forging a new legacy of generous neighbors, magical lore and stockings hung by the chimney with care. An animated Christmas comedy directed by Despicable Me co-creator Sergio Pablos, KLAUS co-stars Joan Cusack, Will Sasso and Norm Macdonald. Written by Netflix

    ไปรษณีย์หนุ่มผู้เห็นแก่ตัวและนักทำของเล่นผู้สันโดษ กลายเป็นเพื่อนกันอย่างคาดไม่ถึง จากนั้นทั้งคู่ยังช่วยกันส่งความสุขให้เมืองที่หนาวเ หน็บและมืดมน


    Code:
    Format                                   : Matroska
    Format version                           : Version 4
    File size                                : 2.03 GiB
    Duration                                 : 1 h 38 min
    Overall bit rate                         : 2 958 kb/s
    Encoded date                             : UTC 2019-11-15 09:56:59
    Writing application                      : mkvmerge v40.0.0 ('Old Town Road + Pony') 64-bit
    Writing library                          : libebml v1.3.9 + libmatroska v1.5.2
    
    Video
    ID                                       : 1
    Format                                   : AVC
    Format/Info                              : Advanced Video Codec
    Format profile                           : [email protected]
    Format settings                          : CABAC / 3 Ref Frames
    Format settings, CABAC                   : Yes
    Format settings, Reference frames        : 3 frames
    Codec ID                                 : V_MPEG4/ISO/AVC
    Duration                                 : 1 h 38 min
    Bit rate                                 : 1 537 kb/s
    Width                                    : 1 920 pixels
    Height                                   : 1 080 pixels
    Display aspect ratio                     : 16:9
    Frame rate mode                          : Constant
    Frame rate                               : 24.000 FPS
    Color space                              : YUV
    Chroma subsampling                       : 4:2:0
    Bit depth                                : 8 bits
    Scan type                                : Progressive
    Bits/(Pixel*Frame)                       : 0.031
    Stream size                              : 1.05 GiB (52%)
    Default                                  : Yes
    Forced                                   : No
    
    Audio #1
    ID                                       : 2
    Format                                   : E-AC-3 JOC
    Format/Info                              : Enhanced AC-3 with Joint Object Coding
    Commercial name                          : Dolby Digital Plus with Dolby Atmos
    Codec ID                                 : A_EAC3
    Duration                                 : 1 h 38 min
    Bit rate mode                            : Constant
    Bit rate                                 : 768 kb/s
    Channel(s)                               : 6 channels
    Channel layout                           : L R C LFE Ls Rs
    Sampling rate                            : 48.0 kHz
    Frame rate                               : 31.250 FPS (1536 SPF)
    Compression mode                         : Lossy
    Delay relative to video                  : -83 ms
    Stream size                              : 538 MiB (26%)
    Language                                 : English
    Service kind                             : Complete Main
    Default                                  : Yes
    Forced                                   : No
    Complexity index                         : 16
    Number of dynamic objects                : 15
    Bed channel count                        : 1 channel
    Bed channel configuration                : LFE
    
    Audio #2
    ID                                       : 3
    Format                                   : E-AC-3
    Format/Info                              : Enhanced AC-3
    Commercial name                          : Dolby Digital Plus
    Codec ID                                 : A_EAC3
    Duration                                 : 1 h 38 min
    Bit rate mode                            : Constant
    Bit rate                                 : 640 kb/s
    Channel(s)                               : 6 channels
    Channel layout                           : L R C LFE Ls Rs
    Sampling rate                            : 48.0 kHz
    Frame rate                               : 31.250 FPS (1536 SPF)
    Compression mode                         : Lossy
    Delay relative to video                  : -83 ms
    Stream size                              : 449 MiB (22%)
    Language                                 : Thai
    Service kind                             : Complete Main
    Default                                  : No
    Forced                                   : No
    
    Text
    ID                                       : 4
    Format                                   : PGS
    Muxing mode                              : zlib
    Codec ID                                 : S_HDMV/PGS
    Codec ID/Info                            : Picture based subtitle format used on BDs/HD-DVDs
    Duration                                 : 1 h 36 min
    Bit rate                                 : 23.2 kb/s
    Count of elements                        : 2506
    Stream size                              : 16.0 MiB (1%)
    Default                                  : Yes
    Forced                                   : No




    พากย์ไทย บรรยายไทย
    Download: cornfile
    http://cornfile.com/hoi9qyejreq5
    Download: mekafile
    http://www.mekafile.com/dl.php?f=9z551bc1z0tq

    บรรยายไทย
    Download: cornfile
    http://cornfile.com/mjb6jhl3mh8p
    Download: mekafile
    http://www.mekafile.com/dl.php?f=8C14ecc1yWCw

  2. The Following 5 Users Say Thank You to Duckload.us For This Useful Post:

    apichartdear (11-15-2019), gaszolineskywalker (11-16-2019), jackjangri (11-30-2019), Jodz14 (11-17-2019), smakha (11-20-2019)

  3. #2
    Senior Member
    สมัครเมื่อ
    Jun 2014
    โพสต์
    1,347
    Thanks
    0
    Thanked 0 Times in 0 Posts
    ขอบคุณครับ

  4. #3
    Senior Member
    สมัครเมื่อ
    Oct 2012
    โพสต์
    797
    Thanks
    1,736
    Thanked 0 Times in 0 Posts
    ขอบคุณครับ

  5. #4
    Member
    สมัครเมื่อ
    Jul 2013
    โพสต์
    90
    Thanks
    0
    Thanked 0 Times in 0 Posts
    ขอบคุณมากๆเลยครับ หลานมีการ์ตูนดู วันหยุดแล้ว

  6. #5
    Senior Member
    สมัครเมื่อ
    Jul 2012
    โพสต์
    6,251
    Thanks
    0
    Thanked 0 Times in 0 Posts
    ขอบคุณมากจ้า

+ ตอบกลับกระทู้

ข้อมูลกระทู้

Users Browsing this Thread

ในขณะนี้มี 1 ท่านดูกระทู้อยู่. (0 สมาชิกและ 1 ผู้เยี่ยมชม)

     

กฎการโพสต์ข้อความ

  • ท่าน ไม่สามารถ ตั้งกระทู้ใหม่ได้
  • ท่าน ไม่สามารถ ตอบกระทู้ได้
  • ท่าน ไม่สามารถ แนบไฟล์ได้
  • ท่าน ไม่สามารถ แก้ไขข้อความโพสต์ได้
  • BB code สถานะ เปิด
  • Smilies สถานะ เปิด
  • [IMG] สถานะ เปิด
  • HTML สถานะ ปิด