+ ตอบกลับกระทู้
สรุปผลการค้นหา 1 ถึง 2 จากทั้งหมด 2
  1. #1
    Administrators รูปส่วนตัว Duckload.us
    สมัครเมื่อ
    Dec 2010
    โพสต์
    108,668
    Thanks
    7
    Thanked 113,699 Times in 52,418 Posts

    Question [ฝรั่ง]-[Netflix] Earthquake Bird (2019) รอยปริศนาในลางร้าย-WEB-DL.H.264.1080p. [Master]-[พากย์ไทย+อังกฤษ 5.1 บรรยายไทย]



    Earthquake Bird



    Rating: 6.6/10 Year: 2019 Genres: Crime / Drama / Mystery / Romance / Thriller Runtime: 107 min Language: English Director: Wash Westmoreland Writers: Susanna Jones / Wash Westmoreland Cast: Alicia Vikander / Riley Keough / Jack Hustonโ€ฆ Plot:

    In 1989 Tokyo, Lucy Fly, an enigmatic expat haunted by a painful past, enters into an intense relationship with Teiji, a handsome yet similarly troubled local photographer. Lucy's imperturbable exterior begins to crack when a naive newcomer, Lily Bridges, becomes entangled in their lives and ends up missing - suspected dead.

    ในโตเกียวยุค 1980 ชาวต่างชาติที่ใช้ชีวิตอยู่ในโตเกียวตกเป็นผู้ต้องสง สัยในคดีฆาตกรรมเพื่อนของตัวเอง หลังเกิดเหตุสัมพันธ์รักสามเส้ากับช่างภาพในท้องถิ่น

    Code:
    Format                                   : Matroska
    Format version                           : Version 4
    File size                                : 2.57 GiB
    Duration                                 : 1 h 46 min
    Overall bit rate                         : 3 443 kb/s
    Encoded date                             : UTC 2019-11-15 09:47:45
    Writing application                      : mkvmerge v40.0.0 ('Old Town Road + Pony') 64-bit
    Writing library                          : libebml v1.3.9 + libmatroska v1.5.2
    
    Video
    ID                                       : 1
    Format                                   : AVC
    Format/Info                              : Advanced Video Codec
    Format profile                           : [email protected]
    Format settings                          : CABAC / 3 Ref Frames
    Format settings, CABAC                   : Yes
    Format settings, Reference frames        : 3 frames
    Codec ID                                 : V_MPEG4/ISO/AVC
    Duration                                 : 1 h 46 min
    Bit rate                                 : 2 027 kb/s
    Width                                    : 1 920 pixels
    Height                                   : 1 080 pixels
    Display aspect ratio                     : 16:9
    Frame rate mode                          : Constant
    Frame rate                               : 24.000 FPS
    Color space                              : YUV
    Chroma subsampling                       : 4:2:0
    Bit depth                                : 8 bits
    Scan type                                : Progressive
    Bits/(Pixel*Frame)                       : 0.041
    Stream size                              : 1.51 GiB (59%)
    Default                                  : Yes
    Forced                                   : No
    
    Audio #1
    ID                                       : 2
    Format                                   : E-AC-3 JOC
    Format/Info                              : Enhanced AC-3 with Joint Object Coding
    Commercial name                          : Dolby Digital Plus with Dolby Atmos
    Codec ID                                 : A_EAC3
    Duration                                 : 1 h 46 min
    Bit rate mode                            : Constant
    Bit rate                                 : 768 kb/s
    Channel(s)                               : 6 channels
    Channel layout                           : L R C LFE Ls Rs
    Sampling rate                            : 48.0 kHz
    Frame rate                               : 31.250 FPS (1536 SPF)
    Compression mode                         : Lossy
    Delay relative to video                  : -83 ms
    Stream size                              : 586 MiB (22%)
    Language                                 : English
    Service kind                             : Complete Main
    Default                                  : Yes
    Forced                                   : No
    Complexity index                         : 16
    Number of dynamic objects                : 15
    Bed channel count                        : 1 channel
    Bed channel configuration                : LFE
    
    Audio #2
    ID                                       : 3
    Format                                   : E-AC-3
    Format/Info                              : Enhanced AC-3
    Commercial name                          : Dolby Digital Plus
    Codec ID                                 : A_EAC3
    Duration                                 : 1 h 46 min
    Bit rate mode                            : Constant
    Bit rate                                 : 640 kb/s
    Channel(s)                               : 6 channels
    Channel layout                           : L R C LFE Ls Rs
    Sampling rate                            : 48.0 kHz
    Frame rate                               : 31.250 FPS (1536 SPF)
    Compression mode                         : Lossy
    Delay relative to video                  : -83 ms
    Stream size                              : 489 MiB (19%)
    Language                                 : Thai
    Service kind                             : Complete Main
    Default                                  : No
    Forced                                   : No
    
    Text
    ID                                       : 4
    Format                                   : PGS
    Muxing mode                              : zlib
    Codec ID                                 : S_HDMV/PGS
    Codec ID/Info                            : Picture based subtitle format used on BDs/HD-DVDs
    Duration                                 : 1 h 41 min
    Bit rate                                 : 13.6 kb/s
    Count of elements                        : 2010
    Stream size                              : 9.86 MiB (0%)
    Default                                  : Yes
    Forced                                   : No




    Download: cornfile
    http://cornfile.com/sjwj0sogr7h1
    Download: mekafile
    http://www.mekafile.com/dl.php?f=4pf7b1c1yWJi

  2. The Following 3 Users Say Thank You to Duckload.us For This Useful Post:

    amorn wichian (11-15-2019), apichartdear (11-15-2019), jangska (11-16-2019)

  3. #2
    Senior Member
    สมัครเมื่อ
    Jun 2014
    โพสต์
    1,347
    Thanks
    0
    Thanked 0 Times in 0 Posts
    ขอบคุณครับ

+ ตอบกลับกระทู้

ข้อมูลกระทู้

Users Browsing this Thread

ในขณะนี้มี 1 ท่านดูกระทู้อยู่. (0 สมาชิกและ 1 ผู้เยี่ยมชม)

     

กฎการโพสต์ข้อความ

  • ท่าน ไม่สามารถ ตั้งกระทู้ใหม่ได้
  • ท่าน ไม่สามารถ ตอบกระทู้ได้
  • ท่าน ไม่สามารถ แนบไฟล์ได้
  • ท่าน ไม่สามารถ แก้ไขข้อความโพสต์ได้
  • BB code สถานะ เปิด
  • Smilies สถานะ เปิด
  • [IMG] สถานะ เปิด
  • HTML สถานะ ปิด