+ ตอบกลับกระทู้
สรุปผลการค้นหา 1 ถึง 4 จากทั้งหมด 4
  1. #1
    Administrators รูปส่วนตัว Duckload.us
    สมัครเมื่อ
    Dec 2010
    โพสต์
    108,714
    Thanks
    7
    Thanked 113,730 Times in 52,424 Posts

    Question [ฝรั่ง]-Fast & Furious Presents: Hobbs & Shaw (2019) เร็ว...แรงทะลุนรก ฮ็อบส์ & ชอว์ - [พากย์ไทย+อังกฤษ] [บรรยายไทย+อังกฤษ] - แก้เสียงและซับไม่ตรงท้ายเรื่อง



    นับตั้งแต่ที่ ฮ็อบส์ เจ้าหน้าที่ผู้รักษากฎหมายเจ้าของร่างล่ำบึ้ก (จอห์นสัน) ผู้จงรักภักดีต่อองค์กรหน่วยรักษาความปลอดภัยทางการท ูตแห่งอเมริกาและชอว์ (สเตแธม) ชายนอกกฎหมาย อดีตเจ้าหน้าที่ทหารชั้นสูงของอังกฤษ ได้เผชิญหน้ากันเป็นครั้งแรกใน Furious 7 ในปี 2015 ทั้งคู่ก็ได้ปะทะกันทั้งด้วยคารมและหมัดด้วยความมุ่ง หมายที่จะโค่นอีกฝ่ายให้ได้

    แต่เมื่อบริกซ์ตัน (อิดริส เอลบา) ผู้ชื่นชอบในลัทธิอนาธิปไตย และได้รับการปรับแต่งทางพันธุกรรมให้มีความสามารถสูง ขึ้น ได้มีอำนาจควบคุมภัยคุกคามร้ายกาจทางชีวะที่อาจเปลี่ ยนแปลงชีวิตของมนุษยชาติไปตลอดกาลและมีชัยเหนือเจ้าห น้าที่เอ็มไอซิกส์ผู้ชาญฉลาดและปราศจากความกลัว (วาเนสซา เคอร์บี้จาก The Crown) ผู้บังเอิญเป็นน้องสาวของชอว์ ศัตรูคู่อาฆาตทั้งสองคนนี้จึงจำเป็นต้องจับมือกันเพื ่อโค่นล้มคนเพียงคนเดียวที่อาจจะร้ายกาจยิ่งกว่าพวกเ ขาเสียอีก

    Code:
    Duration                                 : 2 h 16 min
    Overall bit rate                         : 5 339 kb/s
    Encoded date                             : UTC 2019-11-15 05:15:00
    Writing application                      : mkvmerge v40.0.0 ('Old Town Road + Pony') 64-bit
    Writing library                          : libebml v1.3.9 + libmatroska v1.5.2
    Cover                                    : Yes
    Attachments                              : cover
    
    Video
    ID                                       : 1
    Format                                   : AVC
    Format/Info                              : Advanced Video Codec
    Format profile                           : [email protected]
    Format settings                          : CABAC / 5 Ref Frames
    Format settings, CABAC                   : Yes
    Format settings, Reference frames        : 5 frames
    Codec ID                                 : V_MPEG4/ISO/AVC
    Duration                                 : 2 h 16 min
    Bit rate                                 : 2 695 kb/s
    Width                                    : 1 920 pixels
    Height                                   : 800 pixels
    Display aspect ratio                     : 2.40:1
    Frame rate mode                          : Constant
    Frame rate                               : 23.976 (24000/1001) FPS
    Color space                              : YUV
    Chroma subsampling                       : 4:2:0
    Bit depth                                : 8 bits
    Scan type                                : Progressive
    Bits/(Pixel*Frame)                       : 0.073
    Stream size                              : 2.57 GiB (50%)
    Writing library                          : x264 core 155 r2901 7d0ff22
    Encoding settings                        : cabac=1 / ref=5 / deblock=1:-3:-3 / analyse=0x3:0x133 / me=umh / subme=10 / psy=1 / psy_rd=1.00:0.15 / mixed_ref=1 / me_range=48 / chroma_me=1 / trellis=2 / 8x8dct=1 / cqm=0 / deadzone=21,11 / fast_pskip=0 / chroma_qp_offset=-3 / threads=18 / lookahead_threads=3 / sliced_threads=0 / nr=0 / decimate=0 / interlaced=0 / bluray_compat=0 / constrained_intra=0 / bframes=8 / b_pyramid=2 / b_adapt=2 / b_bias=0 / direct=3 / weightb=1 / open_gop=0 / weightp=2 / keyint=250 / keyint_min=23 / scenecut=40 / intra_refresh=0 / rc_lookahead=60 / rc=crf / mbtree=0 / crf=24.0 / qcomp=0.60 / qpmin=0 / qpmax=69 / qpstep=4 / vbv_maxrate=35000 / vbv_bufsize=29500 / crf_max=0.0 / nal_hrd=none / filler=0 / ip_ratio=1.30 / pb_ratio=1.20 / aq=3:0.80
    Default                                  : Yes
    Forced                                   : No
    Color range                              : Limited
    Color primaries                          : BT.709
    Matrix coefficients                      : BT.709
    
    Audio #1
    ID                                       : 2
    Format                                   : DTS
    Format/Info                              : Digital Theater Systems
    Codec ID                                 : A_DTS
    Duration                                 : 2 h 16 min
    Bit rate mode                            : Constant
    Bit rate                                 : 1 509 kb/s
    Channel(s)                               : 6 channels
    Channel layout                           : C L R Ls Rs LFE
    Sampling rate                            : 48.0 kHz
    Frame rate                               : 93.750 FPS (512 SPF)
    Bit depth                                : 24 bits
    Compression mode                         : Lossy
    Stream size                              : 1.44 GiB (28%)
    Language                                 : English
    Default                                  : No
    Forced                                   : No
    
    Audio #2
    ID                                       : 3
    Format                                   : AC-3
    Format/Info                              : Audio Coding 3
    Commercial name                          : Dolby Digital
    Codec ID                                 : A_AC3
    Duration                                 : 2 h 16 min
    Bit rate mode                            : Constant
    Bit rate                                 : 448 kb/s
    Channel(s)                               : 6 channels
    Channel layout                           : L R C LFE Ls Rs
    Sampling rate                            : 48.0 kHz
    Frame rate                               : 31.250 FPS (1536 SPF)
    Bit depth                                : 16 bits
    Compression mode                         : Lossy
    Stream size                              : 438 MiB (8%)
    Language                                 : English
    Service kind                             : Complete Main
    Default                                  : No
    Forced                                   : No
    
    Audio #3
    ID                                       : 4
    Format                                   : AC-3
    Format/Info                              : Audio Coding 3
    Commercial name                          : Dolby Digital
    Codec ID                                 : A_AC3
    Duration                                 : 2 h 16 min
    Bit rate mode                            : Constant
    Bit rate                                 : 640 kb/s
    Channel(s)                               : 6 channels
    Channel layout                           : L R C LFE Ls Rs
    Sampling rate                            : 48.0 kHz
    Frame rate                               : 31.250 FPS (1536 SPF)
    Bit depth                                : 16 bits
    Compression mode                         : Lossy
    Stream size                              : 626 MiB (12%)
    Language                                 : Thai
    Service kind                             : Complete Main
    Default                                  : Yes
    Forced                                   : No
    
    Text #1
    ID                                       : 5
    Format                                   : VobSub
    Muxing mode                              : zlib
    Codec ID                                 : S_VOBSUB
    Codec ID/Info                            : Picture based subtitle format used on DVDs
    Duration                                 : 2 h 15 min
    Bit rate                                 : 5 807 b/s
    Count of elements                        : 1637
    Stream size                              : 5.65 MiB (0%)
    Language                                 : Thai
    Default                                  : No
    Forced                                   : No
    
    Text #2
    ID                                       : 6
    Format                                   : PGS
    Muxing mode                              : zlib
    Codec ID                                 : S_HDMV/PGS
    Codec ID/Info                            : Picture based subtitle format used on BDs/HD-DVDs
    Duration                                 : 2 h 15 min
    Bit rate                                 : 17.1 kb/s
    Count of elements                        : 3274
    Stream size                              : 16.7 MiB (0%)
    Language                                 : Thai
    Default                                  : No
    Forced                                   : No
    
    Text #3
    ID                                       : 7
    Format                                   : VobSub
    Muxing mode                              : zlib
    Codec ID                                 : S_VOBSUB
    Codec ID/Info                            : Picture based subtitle format used on DVDs
    Duration                                 : 2 h 16 min
    Bit rate                                 : 14.4 kb/s
    Count of elements                        : 2283
    Stream size                              : 14.0 MiB (0%)
    Language                                 : English
    Default                                  : No
    Forced                                   : No
    
    Text #4
    ID                                       : 8
    Format                                   : PGS
    Muxing mode                              : zlib
    Codec ID                                 : S_HDMV/PGS
    Codec ID/Info                            : Picture based subtitle format used on BDs/HD-DVDs
    Duration                                 : 2 h 16 min
    Bit rate                                 : 66.6 kb/s
    Count of elements                        : 4566
    Stream size                              : 65.0 MiB (1%)
    Language                                 : English
    Default                                  : Yes
    Forced                                   : No
    
    Menu
    00:00:00.000                             : en:00:00:00.000
    00:04:58.131                             : en:00:04:58.131
    00:13:43.489                             : en:00:13:43.489
    00:19:21.452                             : en:00:19:21.452
    00:26:45.979                             : en:00:26:45.979
    00:35:41.514                             : en:00:35:41.514
    00:40:13.244                             : en:00:40:13.244
    00:46:22.029                             : en:00:46:22.029
    00:51:34.216                             : en:00:51:34.216
    00:57:51.802                             : en:00:57:51.802
    01:01:53.251                             : en:01:01:53.251
    01:08:45.163                             : en:01:08:45.163
    01:14:22.833                             : en:01:14:22.833
    01:19:48.075                             : en:01:19:48.075
    01:24:59.261                             : en:01:24:59.261
    01:32:58.198                             : en:01:32:58.198
    01:38:48.923                             : en:01:38:48.923
    01:46:32.970                             : en:01:46:32.970
    01:53:29.594                             : en:01:53:29.594
    02:01:14.809                             : en:02:01:14.809


    Download: cornfile
    http://cornfile.com/wjvbs3jzdi45
    Download: mekafile
    http://www.mekafile.com/dl.php?f=z2ce72c1yYBA

  2. The Following 5 Users Say Thank You to Duckload.us For This Useful Post:

    agg001 (11-15-2019), bigbang06 (11-15-2019), gaszolineskywalker (11-16-2019), jangska (11-15-2019), virusring (11-16-2019)

  3. #2
    Member
    สมัครเมื่อ
    Feb 2012
    โพสต์
    37
    Thanks
    0
    Thanked 2 Times in 2 Posts
    สุดยอดเลยคับ ขอบคุณมากคับ นึกว่าจะต้องรอนานกว่านี้

  4. #3
    Senior Member
    สมัครเมื่อ
    Jun 2014
    โพสต์
    1,505
    Thanks
    0
    Thanked 0 Times in 0 Posts
    ขอบคุณครับ

  5. #4
    Senior Member
    สมัครเมื่อ
    Oct 2012
    โพสต์
    797
    Thanks
    1,736
    Thanked 0 Times in 0 Posts
    ขอบคุณครับ

+ ตอบกลับกระทู้

ข้อมูลกระทู้

Users Browsing this Thread

ในขณะนี้มี 1 ท่านดูกระทู้อยู่. (0 สมาชิกและ 1 ผู้เยี่ยมชม)

     

กฎการโพสต์ข้อความ

  • ท่าน ไม่สามารถ ตั้งกระทู้ใหม่ได้
  • ท่าน ไม่สามารถ ตอบกระทู้ได้
  • ท่าน ไม่สามารถ แนบไฟล์ได้
  • ท่าน ไม่สามารถ แก้ไขข้อความโพสต์ได้
  • BB code สถานะ เปิด
  • Smilies สถานะ เปิด
  • [IMG] สถานะ เปิด
  • HTML สถานะ ปิด