+ ͺѺз
ػšä 1 ֧ 3 ҡ 3
  1. #1
    Administrators ٻǹ Duckload.us
    Ѥ
    Dec 2010
    ʵ
    108,668
    Thanks
    7
    Thanked 113,699 Times in 52,418 Posts

    Question []-The Mountain II (2016) ˹úú-WEB-DL.AC-3.1080p. [Modified]-[Soundtrack ]




    Dag II



    Rating: 9/10 Year: 2016 Genres: Action / Drama / War Runtime: 135 min Language: Turkish Director: Alper Caglar Writers: Alper Caglar Cast: Ozan Agaç / Bedii Akin / Murat ArkinPlot:

    DAG II; tells the story of a clandestine special forces squad; call sign 'Storm Bringer'. Following the events of the first film, Bekir and Oguz, unlikely best friends, have enrolled in the world famous, perpetually grueling Turkish special forces training. Their first mission begins six years later-- to infiltrate the most barbarous area of modern day Iraq for a rescue mission. Written by ahmetkozan


    ͧ
    DAG II tells the story of a clandestine special forces squad call sign 'Storm Bringer'. Following the events of the first film, Bekir and Oguz, unlikely best friends, have enrolled in the world famous, perpetually grueling Turkish special forces training. Their first mission begins six years later-- to infiltrate the most barbarous area of modern day Iraq for a rescue mission.


    Format : Matroska
    Format version : Version 4
    File size : 4.02 GiB
    Duration : 2 h 14 min
    Overall bit rate : 4 282 kb/s
    Encoded date : UTC 2019-11-13 12:14:15
    Writing application : mkvmerge v40.0.0 ('Old Town Road + Pony') 64-bit
    Writing library : libebml v1.3.9 + libmatroska v1.5.2

    Video
    ID : 1
    Format : AVC
    Format/Info : Advanced Video Codec
    Format profile : [email protected]
    Format settings : CABAC / 3 Ref Frames
    Format settings, CABAC : Yes
    Format settings, Reference : 3 frames
    Codec ID : V_MPEG4/ISO/AVC
    Duration : 2 h 14 min
    Bit rate : 3 640 kb/s
    Width : 1 920 pixels
    Height : 800 pixels
    Display aspect ratio : 2.40:1
    Frame rate mode : Constant
    Frame rate : 24.000 FPS
    Color space : YUV
    Chroma subsampling : 4:2:0
    Bit depth : 8 bits
    Scan type : Progressive
    Bits/(Pixel*Frame) : 0.099
    Stream size : 3.42 GiB (85%)
    Default : Yes
    Forced : No
    Color range : Limited
    Color primaries : BT.709
    Transfer characteristics : BT.709
    Matrix coefficients : BT.709

    Audio
    ID : 2
    Format : AC-3
    Format/Info : Audio Coding 3
    Commercial name : Dolby Digital
    Codec ID : A_AC3
    Duration : 2 h 14 min
    Bit rate mode : Constant
    Bit rate : 640 kb/s
    Channel(s) : 2 channels
    Channel layout : L R
    Sampling rate : 48.0 kHz
    Frame rate : 31.250 FPS (1536 SPF)
    Compression mode : Lossy
    Stream size : 615 MiB (15%)
    Title : AC-3 Tukish
    Language : Turkish
    Service kind : Complete Main
    Default : Yes
    Forced : No






    Download: cornfile
    http://cornfile.com/fcll5rh2k4ae
    Download: mekafile
    http://www.mekafile.com/dl.php?f=yw7a74c1yWwE

  2. The Following 2 Users Say Thank You to Duckload.us For This Useful Post:

    amorn wichian (11-16-2019), jangska (11-15-2019)

  3. #2
    Senior Member
    Ѥ
    Jun 2014
    ʵ
    1,347
    Thanks
    0
    Thanked 0 Times in 0 Posts
    ͺسѺ

  4. #3
    Member
    Ѥ
    Jul 2013
    ʵ
    90
    Thanks
    0
    Thanked 0 Times in 0 Posts
    ͺسѺ

šз

Users Browsing this Thread

㹢й 1 ҹ١з. (0 Ҫԡ 1 )

     

ʵͤ

  • ҹ ö 駡з
  • ҹ ö ͺз
  • ҹ ö
  • ҹ ö 䢢ͤʵ