+ ตอบกลับกระทู้
สรุปผลการค้นหา 1 ถึง 4 จากทั้งหมด 4
  1. #1
    Administrators รูปส่วนตัว Duckload.us
    สมัครเมื่อ
    Dec 2010
    โพสต์
    108,668
    Thanks
    7
    Thanked 113,702 Times in 52,418 Posts

    Question (ฝรั่ง.ภาพ HQ.SUB:ENG+พากย์ไทยโรง)-GEMINI MAN (2019) เจมิไน แมน-[HDRip.1080p][ Sound:Eng AC3 5.1+Thai Rong AC3 2.0][ H-SUB KOR / S-SUB:Eng.PGS]



    วิล สมิธ ซึ่งรับบทเป็น เฮนรี่ โบรแกน นักฆ่าฝีมือฉกาจซึ่งกลายเป็นเป้าหมายและถูกไล่ล่าโดย เจ้าหน้าที่ปฏิบัติการลับที่สามารถคาดการณ์การเคลื่อ นไหวของเขาได้ทุกครั้ง เรื่องราวของ เฮนรี โบรแกน (Will Smith) สไนเปอร์นักฆ่าฝีมือฉกาจที่ต้องการวางมือและอยากใช้ช ีวิตอย่างสงบหลังจากเกษียณ เฮนรี ถูกวานให้ฆ่าคนคนหนึ่งที่เอกสารถูกปลอมขึ้นมาเพื่อหว ังให้การฆ่าครั้งนี้เป็นเหตุผลให้เขาต้องถูกเก็บโดยม ี เคลย์ เวอริส (Clive Owen) เพื่อนเก่าของเขาที่ครอบครองโปรเจกต์เจมิไน มันคือโครงการโคลนนิ่งมือสังหารที่ยกระดับคุณภาพเหนื อมนุุษย์ เฮนรี จึงถูกตามล่าโดย จูเนียร์ ซึ่งเป็นโคลนนิ่งตัวเขาเองในวัยหนุ่มมีความเก่งกาจไม ่ธรรมดาและยังสามารถคาดการณ์การเคลื่อนไหวของเขาได้ท ุกครั้ง

    จูเนียร์ ถูกโคลนนิ่งขึ้นจากดีเอ็นเอของ เฮนรี ภายใต้โครงการ เจมิไน เฮนรี ต้องเผชิญหน้ากับศัตรูที่รู้จักตัวเองดีเขาพยายามไม่ ทำร้ายนักฆ่าฝาแฝดวัยหนุ่มของตัวเองและพยายามเกลี้ยม กล่อมด้วยความจริง และยังมี แดนนี (Mary Elizabeth Winstead) สายลับสาวที่ไม่รู้นิโหน่อิเหน่ติดร่างแหมาด้วย เฮนรี ทั้งสองต้องร่วมมือกับฝ่าฝันปัญหาที่ไม่เคยเจอมาก่อน เขาจะสามารถเผชิญกับตัวตนของตัวเองในวัยหนุ่มที่พยาย ามฆ่าเขาได้อย่างไรและจะสามารถทำลายโปรเจกต์เจมิไน ที่มีผลกระทบต่อเขาเองได้หรือไม่

    Format : Matroska
    Format version : Version 4
    File size : 3.84 GiB
    Duration : 1 h 47 min
    Overall bit rate : 5 135 kb/s
    Movie name : Gemini.Man.2019.1080p.KORSUB.HDRip.x264.THR_ฉGOLD CUP™

    Video
    ID : 1
    Format : AVC
    Format/Info : Advanced Video Codec
    Format profile : [email protected]
    Format settings : CABAC / 1 Ref Frames
    Format settings, CABAC : Yes
    Format settings, Reference : 1 frame
    Format settings, GOP : M=1, N=25
    Codec ID : V_MPEG4/ISO/AVC
    Duration : 1 h 47 min
    Bit rate mode : Constant
    Bit rate : 4 800 kb/s
    Width : 1 920 pixels
    Height : 1 040 pixels
    Display aspect ratio : 1.85:1
    Frame rate mode : Constant
    Frame rate : 29.970 (30000/1001) FPS
    Color space : YUV
    Chroma subsampling : 4:2:0
    Bit depth : 8 bits
    Scan type : Progressive
    Bits/(Pixel*Frame) : 0.080
    Stream size : 3.58 GiB (93%)
    Title : Gemini.Man.2019.1080p.KORSUB.HDRip.x264.THR_ฉGOLD CUP™
    Language : English
    Default : Yes
    Forced : No

    Audio #1
    ID : 2
    Format : AC-3
    Format/Info : Audio Coding 3
    Commercial name : Dolby Digital
    Codec ID : A_AC3
    Duration : 1 h 47 min
    Bit rate mode : Constant
    Bit rate : 160 kb/s
    Channel(s) : 2 channels
    Channel layout : L R
    Sampling rate : 44.1 kHz
    Frame rate : 28.711 FPS (1536 SPF)
    Compression mode : Lossy
    Stream size : 122 MiB (3%)
    Title : 2.0 AC3 THR 160k 122m_ฉGOLD CUP™
    Language : Thai
    Service kind : Complete Main
    Default : Yes
    Forced : No

    Audio #2
    ID : 3
    Format : AC-3
    Format/Info : Audio Coding 3
    Commercial name : Dolby Digital
    Codec ID : A_AC3
    Duration : 1 h 47 min
    Bit rate mode : Constant
    Bit rate : 160 kb/s
    Channel(s) : 6 channels
    Channel layout : L R C LFE Ls Rs
    Sampling rate : 44.1 kHz
    Frame rate : 28.711 FPS (1536 SPF)
    Compression mode : Lossy
    Stream size : 122 MiB (3%)
    Title : 5.1 AC3 En 160k 122m_ฉGOLD CUP™
    Language : English
    Service kind : Complete Main
    Default : No
    Forced : No

    Text
    ID : 4
    Format : PGS
    Muxing mode : zlib
    Codec ID : S_HDMV/PGS
    Codec ID/Info : Picture based subtitle format used on BDs/HD-DVDs
    Duration : 1 h 46 min
    Bit rate : 26.1 kb/s
    Count of elements : 2768
    Stream size : 19.8 MiB (1%)
    Title : Gemini Man 2019 HC HDRip pgs.90-65-20_ฉGOLD CUP™
    Language : English
    Default : Yes
    Forced : No






    3.9 GB
    Download: cornfile
    http://cornfile.com/grczcqixlk9r
    Download: mekafile
    http://www.mekafile.com/dl.php?f=DI399cc1Bi9R


    3.8 GB
    Download: cornfile
    http://cornfile.com/hsjlfhyxj21v
    Download: mekafile
    http://www.mekafile.com/dl.php?f=2p6d7ec1BdU0

  2. The Following 2 Users Say Thank You to Duckload.us For This Useful Post:

    gozilla02 (11-17-2019), jangska (11-17-2019)

  3. #2
    Senior Member
    สมัครเมื่อ
    Jun 2014
    โพสต์
    1,347
    Thanks
    0
    Thanked 0 Times in 0 Posts
    ขอบคุณครับ

  4. #3
    Member
    สมัครเมื่อ
    Jul 2013
    โพสต์
    90
    Thanks
    0
    Thanked 0 Times in 0 Posts
    ทันใจสุดๆ ขอบคุณครับ

  5. #4
    มาไว้เกิน ผมโหลดและ อัพลงเว็บผมละ Gemini Man (2019) เจมิไน แมน
    เว็บดูหนังออนไลน์ ดูหนังใหม่ ดูหนัง ดูหนังฟรี www.Do-9.com

+ ตอบกลับกระทู้

ข้อมูลกระทู้

Users Browsing this Thread

ในขณะนี้มี 1 ท่านดูกระทู้อยู่. (0 สมาชิกและ 1 ผู้เยี่ยมชม)

     

กฎการโพสต์ข้อความ

  • ท่าน ไม่สามารถ ตั้งกระทู้ใหม่ได้
  • ท่าน ไม่สามารถ ตอบกระทู้ได้
  • ท่าน ไม่สามารถ แนบไฟล์ได้
  • ท่าน ไม่สามารถ แก้ไขข้อความโพสต์ได้
  • BB code สถานะ เปิด
  • Smilies สถานะ เปิด
  • [IMG] สถานะ เปิด
  • HTML สถานะ ปิด